• Rise from your gwave!

Legend of oasis problemo...

Discussion in 'Game Help' started by BrindA17, May 23, 2002.

  1. BrindA17

    BrindA17 New Member

    I haven't gotten far at all in this game yet. My problem is, I don't know how to get the bow and arrows. I can't shoot the lever between the fire because I don't know how to get the arrows. Can ya help me out? Thanks
     
  2. mal

    mal Member

    There's a couple of FAQ/Walkthroughs over at Gamefaqs.

    They don't allow off site linking so you'll have to find them yourself. It should be pretty easy though.
     
  3. ExCyber

    ExCyber Staff Member

    This might not make sense to you yet, but if there's one hint you need to know for that game, it's that they were pretty thorough with the spirit ball triggers. If there's some object / phenomenon (e.g. bomb explosions) that should logically allow you to summon, it probably does...
     
  4. Gallstaff

    Gallstaff Member

    I got a problem with the cue sheet. I dowloaded it as a bin/cue, but the cue sheet just says:

    FILE "LOA-US.BIN" BINARY

    TRACK 01 MODE1/2352

    INDEX 01 00:00:00

    TRACK 02 AUDIO

    PREGAP 00:02:00

    INDEX 01 07:44:58

    will that work?
     
  5. ExCyber

    ExCyber Staff Member

    That seems about right. The game isn't that big data-wise (it's 2D with synthesized music), and there's only one short audio track. Actually, I'm not sure the game even uses the audio track...
     
  6. Gallstaff

    Gallstaff Member

    ok well the game don't work anyway but no i got another problem. I downloading it from a different ftp and it comes in this :

    Loa.exe,Loac00-loa.c09, and audio-loa.mp3

    what do i do with these
     
  7. ExCyber

    ExCyber Staff Member

    If you're trusting, run loa.exe (Legend of Aosis?). If you're paranoid, grab a compression program that supports ACE (I think WinRAR does) and extract it.
     
  8. Gallstaff

    Gallstaff Member

    well i ran the .exe and i got an iso. yay. now what do i do about that one audio track and all the .c0 files?
     
  9. ExCyber

    ExCyber Staff Member

    Do what you'd do with any other audio track.

    Unless the self-extract code screwed up, those have already done their job.
     
  10. Gallstaff

    Gallstaff Member

    what? So i just gotta open up sega cue sheet maker and load the iso? this is what it looks like:

    FILE "loa.ISO" BINARY

    TRACK 01 MODE1/2048

    INDEX 01 00:00:00

    POSTGAP 00:02:00

    FILE "Audio-loa.mp3" MP3

    TRACK 02 AUDIO

    PREGAP 00:02:00

    INDEX 01 00:00:00

    don't look right to me...
     
  11. ExCyber

    ExCyber Staff Member

    I don't see anything wrong. AFAIK the pregap and postgap would be automatically added by most burning software anyway, and they're both "INDEX 01 00:00:00" because the data is in separate files. Despite its format, the INDEX MM:SS:FF specifies an offset within the file, not a location on the disc (though there is some overlap between the two when dealing with .bin images).
     
  12. mal

    mal Member

    You're not very trusting of cue sheets are you Gallstaff? [​IMG]
     
  13. Gallstaff

    Gallstaff Member

    Like my dad says:

    I don't trust what i don't know
     
  14. Xai

    Xai New Member

    LoA??? Well, if it is legend of oasis and you still need help with it I have an original, I can rip it (hopefully it isn't too scratched up) and see what kind of cuesheet I get if you'd like.
     

Share This Page