• Rise from your gwave!

Something for Taelon

Discussion in 'Computer's Discussion' started by PowerSoul, Jun 8, 2002.

  1. PowerSoul

    PowerSoul New Member

    Taelon

    I am useing Sega Cue maker...???

    I hate Xp....

    note: is " " supposed to be used in cue sheets..?
     
  2. Taelon

    Taelon Member

    Do I know you? Do you know me?

    Glad you're using Sega Cue Maker...

    Sorry to hear you hate XP, though not surprised by it...

    No there isn't supposed to be an empty string in your cuesheet... lest you have a filename with leading/trailing spaces somewhere....

    Erm. Yeah. I'm still kinda confused here.
     
  3. PowerSoul

    PowerSoul New Member

    You replied with a post to one of my questions earlier..

    as for the question the " file " is not blank it has the cue filled out compleatly but still gives the error...ex

    FILE "Lunar.iso" BINARY

    TRACK 01 MODE1/2048

    INDEX 01 00:00:00

    POSTGAP 00:02:00

    FILE "Lunar_TSS_(US) 02.wav" WAVE

    TRACK 02 AUDIO

    PREGAP 00:02:00

    INDEX 01 00:00:00

    FILE "Lunar_TSS_(US) 03.wav" WAVE

    TRACK 03 AUDIO

    INDEX 01 00:00:00......etc...

    Is this right..?
     
  4. Gallstaff

    Gallstaff Member

    just load the iso into SCM and i think it should be fine... that's the whole point of the program.
     

Share This Page