Anyone have a cue sheet for Capcom Generations 4??

slinga

Established Member
Hey,

I'm having trouble burning Capcom Generation 4 (multitap compatible :cheers). Does anyone have a cue sheet they'd like to share?
 

slinga

Established Member
Here's the cue sheet I made, it doesn't work though:

FILE "CAPGEN4 T01 MODE1 2048.ISO" BINARY

TRACK 01 MODE1/2048

INDEX 01 00:00:00

POSTGAP 00:02:00

FILE "CAPGEN4 T02 AUDIO 2352.MP3" MP3

TRACK 02 AUDIO

PREGAP 00:02:00

INDEX 01 00:00:00

FILE "CAPGEN4 T03 AUDIO 2352.MP3" MP3

TRACK 03 AUDIO

INDEX 01 00:00:00

FILE "CAPGEN4 T04 AUDIO 2352.MP3" MP3

TRACK 04 AUDIO

INDEX 01 00:00:00

FILE "CAPGEN4 T05 AUDIO 2352.MP3" MP3

TRACK 05 AUDIO

INDEX 01 00:00:00

FILE "CAPGEN4 T06 AUDIO 2352.MP3" MP3

TRACK 06 AUDIO

INDEX 01 00:00:00

FILE "CAPGEN4 T07 AUDIO 2352.MP3" MP3

TRACK 07 AUDIO

INDEX 01 00:00:00

FILE "CAPGEN4 T08 AUDIO 2352.MP3" MP3

TRACK 08 AUDIO

INDEX 01 00:00:00

FILE "CAPGEN4 T09 AUDIO 2352.MP3" MP3

TRACK 09 AUDIO

INDEX 01 00:00:00

FILE "CAPGEN4 T10 AUDIO 2352.MP3" MP3

TRACK 10 AUDIO

INDEX 01 00:00:00

FILE "CAPGEN4 T11 AUDIO 2352.MP3" MP3

TRACK 11 AUDIO

INDEX 01 00:00:00

FILE "CAPGEN4 T12 AUDIO 2352.MP3" MP3

TRACK 12 AUDIO

INDEX 01 00:00:00

FILE "CAPGEN4 T13 AUDIO 2352.MP3" MP3

TRACK 13 AUDIO

INDEX 01 00:00:00

FILE "CAPGEN4 T14 AUDIO 2352.MP3" MP3

TRACK 14 AUDIO

INDEX 01 00:00:00

FILE "CAPGEN4 T15 AUDIO 2352.MP3" MP3

TRACK 15 AUDIO

INDEX 01 00:00:00

FILE "CAPGEN4 T16 AUDIO 2352.MP3" MP3

TRACK 16 AUDIO

INDEX 01 00:00:00

FILE "CAPGEN4 T17 AUDIO 2352.MP3" MP3

TRACK 17 AUDIO

INDEX 01 00:00:00

FILE "CAPGEN4 T18 AUDIO 2352.MP3" MP3

TRACK 18 AUDIO

INDEX 01 00:00:00

FILE "CAPGEN4 T19 AUDIO 2352.MP3" MP3

TRACK 19 AUDIO

INDEX 01 00:00:00

FILE "CAPGEN4 T20 AUDIO 2352.MP3" MP3

TRACK 20 AUDIO

INDEX 01 00:00:00

FILE "CAPGEN4 T21 AUDIO 2352.MP3" MP3

TRACK 21 AUDIO

INDEX 01 00:00:00

FILE "CAPGEN4 T22 AUDIO 2352.MP3" MP3

TRACK 22 AUDIO

INDEX 01 00:00:00

FILE "CAPGEN4 T23 AUDIO 2352.MP3" MP3

TRACK 23 AUDIO

INDEX 01 00:00:00

FILE "CAPGEN4 T24 AUDIO 2352.MP3" MP3

TRACK 24 AUDIO

INDEX 01 00:00:00

FILE "CAPGEN4 T25 AUDIO 2352.MP3" MP3

TRACK 25 AUDIO

INDEX 01 00:00:00

FILE "CAPGEN4 T26 AUDIO 2352.MP3" MP3

TRACK 26 AUDIO

INDEX 01 00:00:00

FILE "CAPGEN4 T27 AUDIO 2352.MP3" MP3

TRACK 27 AUDIO

INDEX 01 00:00:00

FILE "CAPGEN4 T28 AUDIO 2352.MP3" MP3

TRACK 28 AUDIO

INDEX 01 00:00:00

FILE "CAPGEN4 T29 AUDIO 2352.MP3" MP3

TRACK 29 AUDIO

INDEX 01 00:00:00

FILE "CAPGEN4 T30 AUDIO 2352.MP3" MP3

TRACK 30 AUDIO

INDEX 01 00:00:00

FILE "CAPGEN4 T31 AUDIO 2352.MP3" MP3

TRACK 31 AUDIO

INDEX 01 00:00:00

FILE "CAPGEN4 T32 AUDIO 2352.MP3" MP3

TRACK 32 AUDIO

INDEX 01 00:00:00

FILE "CAPGEN4 T33 AUDIO 2352.MP3" MP3

TRACK 33 AUDIO

INDEX 01 00:00:00

FILE "CAPGEN4 T34 AUDIO 2352.MP3" MP3

TRACK 34 AUDIO

INDEX 01 00:00:00

FILE "CAPGEN4 T35 AUDIO 2352.MP3" MP3

TRACK 35 AUDIO

INDEX 01 00:00:00

FILE "CAPGEN4 T36 AUDIO 2352.MP3" MP3

TRACK 36 AUDIO

INDEX 01 00:00:00

FILE "CAPGEN4 T37 AUDIO 2352.MP3" MP3

TRACK 37 AUDIO

INDEX 01 00:00:00

FILE "CAPGEN4 T38 AUDIO 2352.MP3" MP3

TRACK 38 AUDIO

INDEX 01 00:00:00

FILE "CAPGEN4 T39 AUDIO 2352.MP3" MP3

TRACK 39 AUDIO

INDEX 01 00:00:00

FILE "CAPGEN4 T40 AUDIO 2352.MP3" MP3

TRACK 40 AUDIO

INDEX 01 00:00:00

FILE "CAPGEN4 T41 AUDIO 2352.MP3" MP3

TRACK 41 AUDIO

INDEX 01 00:00:00

FILE "CAPGEN4 T42 AUDIO 2352.MP3" MP3

TRACK 42 AUDIO

INDEX 01 00:00:00

FILE "CAPGEN4 T43 AUDIO 2352.MP3" MP3

TRACK 43 AUDIO

INDEX 01 00:00:00

FILE "CAPGEN4 T44 AUDIO 2352.MP3" MP3

TRACK 44 AUDIO

INDEX 01 00:00:00

FILE "CAPGEN4 T45 AUDIO 2352.MP3" MP3

TRACK 45 AUDIO

INDEX 01 00:00:00

FILE "CAPGEN4 T46 AUDIO 2352.MP3" MP3

TRACK 46 AUDIO

INDEX 01 00:00:00

FILE "CAPGEN4 T47 AUDIO 2352.MP3" MP3

TRACK 47 AUDIO

INDEX 01 00:00:00

FILE "CAPGEN4 T48 AUDIO 2352.MP3" MP3

TRACK 48 AUDIO

INDEX 01 00:00:00

FILE "CAPGEN4 T49 AUDIO 2352.MP3" MP3

TRACK 49 AUDIO

INDEX 01 00:00:00

FILE "CAPGEN4 T50 AUDIO 2352.MP3" MP3

TRACK 50 AUDIO

INDEX 01 00:00:00

FILE "CAPGEN4 T51 AUDIO 2352.MP3" MP3

TRACK 51 AUDIO

INDEX 01 00:00:00

FILE "CAPGEN4 T52 AUDIO 2352.MP3" MP3

TRACK 52 AUDIO

INDEX 01 00:00:00

FILE "CAPGEN4 T53 AUDIO 2352.MP3" MP3

TRACK 53 AUDIO

INDEX 01 00:00:00

FILE "CAPGEN4 T54 AUDIO 2352.MP3" MP3

TRACK 54 AUDIO

INDEX 01 00:00:00

FILE "CAPGEN4 T55 AUDIO 2352.MP3" MP3

TRACK 55 AUDIO

INDEX 01 00:00:00

FILE "CAPGEN4 T56 AUDIO 2352.MP3" MP3

TRACK 56 AUDIO

INDEX 01 00:00:00

FILE "CAPGEN4 T57 AUDIO 2352.MP3" MP3

TRACK 57 AUDIO

INDEX 01 00:00:00

FILE "CAPGEN4 T58 AUDIO 2352.MP3" MP3

TRACK 58 AUDIO

INDEX 01 00:00:00

FILE "CAPGEN4 T59 AUDIO 2352.MP3" MP3

TRACK 59 AUDIO

INDEX 01 00:00:00

FILE "CAPGEN4 T60 AUDIO 2352.MP3" MP3

TRACK 60 AUDIO

INDEX 01 00:00:00

FILE "CAPGEN4 T61 AUDIO 2352.MP3" MP3

TRACK 61 AUDIO

INDEX 01 00:00:00

FILE "CAPGEN4 T62 AUDIO 2352.MP3" MP3

TRACK 62 AUDIO

INDEX 01 00:00:00

FILE "CAPGEN4 T63 AUDIO 2352.MP3" MP3

TRACK 63 AUDIO

INDEX 01 00:00:00

FILE "CAPGEN4 T64 AUDIO 2352.MP3" MP3

TRACK 64 AUDIO

INDEX 01 00:00:00

FILE "CAPGEN4 T65 AUDIO 2352.MP3" MP3

TRACK 65 AUDIO

INDEX 01 00:00:00


Damnit, I needed the freaking Pregap.
 
Top