Anyone know how to burn 3do games?

GO TO ADMIN PANEL > ADD-ONS AND INSTALL VERTIFORO SIDEBAR TO SEE FORUMS AND SIDEBAR

Fabrizo

New Member
Joined
Oct 3, 2001
Messages
992
Points
16
Age
35
Website
Visit site
I just finnished downloading and burning the game Lucienne's Quest using easy cd pro 95, but my 3do just keeps trying to read it like a music cd. Any ideas how to get it to work?
 

MasterAkumaMatata

Staff member
Joined
Apr 18, 2001
Messages
3,300
Points
36
Location
Akuma Island
Website
superakuma5k.homestead.com
Did it come with a cue sheet? If so, open that cue sheet with Notepad or some text editor and tell me if you see the data track listed twice, once in the beginning and once at the end. I think 3DO games were the ones where they had that type of weird layout.
 

Fabrizo

New Member
Joined
Oct 3, 2001
Messages
992
Points
16
Age
35
Website
Visit site
Well, this is what it says in the cue sheet:

; Generated by WIN-SFV32 v1.1a on 2001-05-23 at 20:30.58

;

; 20479150 20:22.32 2001-05-23 Lucienne's Quest.ace

; 20479150 20:23.32 2001-05-23 Lucienne's Quest.c00

; 20479150 20:24.36 2001-05-23 Lucienne's Quest.c01

; 20479150 20:25.38 2001-05-23 Lucienne's Quest.c02

; 20479150 20:26.40 2001-05-23 Lucienne's Quest.c03

; 20479150 20:27.50 2001-05-23 Lucienne's Quest.c04

; 11661503 20:28.32 2001-05-23 Lucienne's Quest.c05

Lucienne's Quest.ace 4DD40B9A

Lucienne's Quest.c00 806311DD

Lucienne's Quest.c01 AA909519

Lucienne's Quest.c02 C6B3532F

Lucienne's Quest.c03 AC0D7AE7

Lucienne's Quest.c04 89A0BF9E

Lucienne's Quest.c05 2B558FC7
 

lockecole2

New Member
Joined
Apr 23, 2001
Messages
60
Points
6
Website
Visit site
Quote: from Fabrizo on 3:46 pm on Oct. 9, 2001

Well, this is what it says in the cue sheet:

; Generated by WIN-SFV32 v1.1a on 2001-05-23 at 20:30.58

;

; 20479150 20:22.32 2001-05-23 Lucienne's Quest.ace

; 20479150 20:23.32 2001-05-23 Lucienne's Quest.c00

; 20479150 20:24.36 2001-05-23 Lucienne's Quest.c01

; 20479150 20:25.38 2001-05-23 Lucienne's Quest.c02

; 20479150 20:26.40 2001-05-23 Lucienne's Quest.c03

; 20479150 20:27.50 2001-05-23 Lucienne's Quest.c04

; 11661503 20:28.32 2001-05-23 Lucienne's Quest.c05

Lucienne's Quest.ace 4DD40B9A

Lucienne's Quest.c00 806311DD

Lucienne's Quest.c01 AA909519

Lucienne's Quest.c02 C6B3532F

Lucienne's Quest.c03 AC0D7AE7

Lucienne's Quest.c04 89A0BF9E

Lucienne's Quest.c05 2B558FC7

then that cue sheet has an identity crisis ;). it's an sfv file. the cue should look something like (example names, size per sector sizes):

FILE "LQUEST.BIN" BINARY

TRACK 01 MODE2/2352

INDEX 01 00:00:00

then later it should repeat the data track, according to akuma. i thought those were TG16/PCE disc images that had double data tracks though.
 

Mo Threat

New Member
Joined
Apr 17, 2001
Messages
172
Points
16
Website
Visit site
3DO is strictly one track only. No audio, no second data track, no nothing. Also, because of the odd 3DO format you can't view the files in the ISO (assuming it's cooked) like you can with say a SegaCD or Saturn 2048/cooked ISO image.

For some reason the only prog I could get to make a working 3DO disc from a 2048 ISO is DiscJuggler 3.xx. If the image isn't 2048/cooked you should be able to burn it with CDRWin. The nifty lil' trick is figuring out which format your ISO is in without a CUE sheet. If you don't mind wasting a CDR or two you could use the example CUE that lockecole2 just posted - that's about how a 2352/RAW 3DO CUE would look - just adjust the file name and CUE sheet to match each other.

Good luck.
 

MasterAkumaMatata

Staff member
Joined
Apr 18, 2001
Messages
3,300
Points
36
Location
Akuma Island
Website
superakuma5k.homestead.com
Quote: from lockecole2 on 2:52 pm on Oct. 9, 2001

then that cue sheet has an identity crisis ;). it's an sfv file. the cue should look something like (example names, size per sector sizes):

FILE "LQUEST.BIN" BINARY

TRACK 01 MODE2/2352

INDEX 01 00:00:00

then later it should repeat the data track, according to akuma. i thought those were TG16/PCE disc images that had double data tracks though.
LMAO!


Whoops, my bad.
 

IceDigger

Founder
Staff member
Joined
Apr 16, 2001
Messages
5,516
Points
38
Age
39
Location
USA
Website
www.segaxtreme.net
I'd hope you actually extracted the ace files before you burnt. if you did, there should've been a cue file in there too.
 

Fabrizo

New Member
Joined
Oct 3, 2001
Messages
992
Points
16
Age
35
Website
Visit site
Nope, none :( . This is beginning to tick me off, I can't buy the game because no one is selling a copy on ebay or yahoo, and I can't burn it because it didn't come with a cue sheet.
 

Mo Threat

New Member
Joined
Apr 17, 2001
Messages
172
Points
16
Website
Visit site
Just use this:

FILE "LQUEST.BIN" BINARY

TRACK 01 MODE2/2352

INDEX 01 00:00:00

If it doesn't work, use this:

FILE "LQUEST.BIN" BINARY

TRACK 01 MODE1/2048

INDEX 01 00:00:00

If neither work... you may wanna d/l again.

Are you 100% sure you got all seven files in the ACE archive?
 
Top