Dual data track games

Sane

New Member
I've had a Christmas Nights bin/cue on my HD for ages since the game would never burn for me. I read all the topics on this and tried most things to get it to work (except the method described in the last topic about it) but nothing would work, I always got errors about the 2nd data track.

Anyway, I had given up hope to ever getting it to work until I got Salamander Deluxe Pack, which has only one data track, gave me a similar error when trying to burn it. A little before that I had installed Alcohol 120% so I decided to try that and it worked. Because I was bored and felt like wasting some cdr's I thought I might give Cristmas Nights a final try again before deleting it......and it worked!!!!

Without modifying anything and using Alcohol 120% on default settings it burned a perfect Christmas Nights
.

I still think it's strange that it worked.....everything gave me errors with that game, even isobuster etc., but I'm not complaining. So now I'm going to try Twinkle Star Sprites as well, I'll post later if it worked.

Edit: correction, Isobuster could open the file, WINISO couldn't open it.

Oh, here's my Christmas Nights cue:

FILE "CNIGHTS.BIN" BINARY

TRACK 01 MODE1/2352

INDEX 01 00:00:00

TRACK 02 MODE2/2352

PREGAP 00:03:00

INDEX 01 02:59:63

TRACK 03 AUDIO

PREGAP 00:02:00

INDEX 01 27:55:12

TRACK 04 AUDIO

INDEX 00 28:05:17

INDEX 01 28:07:17

TRACK 05 AUDIO

INDEX 00 28:17:19

INDEX 01 28:19:19

TRACK 06 AUDIO

INDEX 00 28:30:47

INDEX 01 28:32:47

TRACK 07 AUDIO

INDEX 00 28:46:57

INDEX 01 28:48:57

TRACK 08 AUDIO

INDEX 00 30:57:31

INDEX 01 30:59:31

TRACK 09 AUDIO

INDEX 00 33:02:52

INDEX 01 33:04:52

TRACK 10 AUDIO

INDEX 00 35:10:52

INDEX 01 35:12:52

TRACK 11 AUDIO

INDEX 00 37:15:52

INDEX 01 37:17:52

TRACK 12 AUDIO

INDEX 00 39:08:14

INDEX 01 39:10:14

TRACK 13 AUDIO

INDEX 00 40:37:15

INDEX 01 40:39:15

TRACK 14 AUDIO

INDEX 00 41:39:17

INDEX 01 41:41:17

TRACK 15 AUDIO

INDEX 00 42:36:33

INDEX 01 42:38:33

TRACK 16 AUDIO

INDEX 00 43:33:67

INDEX 01 43:35:67

TRACK 17 AUDIO

INDEX 00 44:23:73

INDEX 01 44:25:73

TRACK 18 AUDIO

INDEX 00 45:52:28

INDEX 01 45:54:28

TRACK 19 AUDIO

INDEX 00 51:08:70

INDEX 01 51:10:70

TRACK 20 AUDIO

INDEX 00 56:24:24

INDEX 01 56:26:24

 
Top