dumb question bout burning

ok, this might sound dumb, so correct me with what im doing wrong. I recently bought an X'Eye from ebay. now due to the fact i dont have any games at the moment for sega cd to test them out, I decided to burn one, and used Snatcher. After trying out the cartridge section, and seeing that it worked fine I popped the Snatcher disc in. All I kept getting was the loading screen. After listening to the cheezy music for about 30 seconds, i gave up. Soon after, I figured I should try it on the computer, maybe it'd work there. And lo and behold, it worked on the emulator. very odd to me. Is there any bios I need to make sure that it would run on the system? Cuz this is really weird to me. FYI: The programs I used were Sega Cue Maker, and CDRWIN (I believe, I could be wrong). ??? Thanks in advance guys.
 
btw: heres my cue sheet in case anyone wants to check it out:

FILE "Snatcher.iso" BINARY

TRACK 01 MODE1/2048

INDEX 01 00:00:00

POSTGAP 00:02:00

FILE "Snatcher 02.wav" WAVE

TRACK 02 AUDIO

PREGAP 00:02:00

INDEX 01 00:00:00

FILE "Snatcher 03.wav" WAVE

TRACK 03 AUDIO

INDEX 01 00:00:00

FILE "Snatcher 04.wav" WAVE

TRACK 04 AUDIO

INDEX 01 00:00:00

FILE "Snatcher 05.wav" WAVE

TRACK 05 AUDIO

INDEX 01 00:00:00

FILE "Snatcher 06.wav" WAVE

TRACK 06 AUDIO

INDEX 01 00:00:00

FILE "Snatcher 07.wav" WAVE

TRACK 07 AUDIO

INDEX 01 00:00:00

FILE "Snatcher 08.wav" WAVE

TRACK 08 AUDIO

INDEX 01 00:00:00

FILE "Snatcher 09.wav" WAVE

TRACK 09 AUDIO

INDEX 01 00:00:00

FILE "Snatcher 10.wav" WAVE

TRACK 10 AUDIO

INDEX 01 00:00:00

FILE "Snatcher 11.wav" WAVE

TRACK 11 AUDIO

INDEX 01 00:00:00

FILE "Snatcher 12.wav" WAVE

TRACK 12 AUDIO

INDEX 01 00:00:00

FILE "Snatcher 13.wav" WAVE

TRACK 13 AUDIO

INDEX 01 00:00:00

FILE "Snatcher 14.wav" WAVE

TRACK 14 AUDIO

INDEX 01 00:00:00

FILE "Snatcher 15.wav" WAVE

TRACK 15 AUDIO

INDEX 01 00:00:00

FILE "Snatcher 16.wav" WAVE

TRACK 16 AUDIO

INDEX 01 00:00:00

FILE "Snatcher 17.wav" WAVE

TRACK 17 AUDIO

INDEX 01 00:00:00

FILE "Snatcher 18.wav" WAVE

TRACK 18 AUDIO

INDEX 01 00:00:00

FILE "Snatcher 19.wav" WAVE

TRACK 19 AUDIO

INDEX 01 00:00:00

FILE "Snatcher 20.wav" WAVE

TRACK 20 AUDIO

INDEX 01 00:00:00

FILE "Snatcher 21.wav" WAVE

TRACK 21 AUDIO

INDEX 01 00:00:00

FILE "Snatcher 22.wav" WAVE

TRACK 22 AUDIO

INDEX 01 00:00:00
 

MasterAkumaMatata

Established Member
In Reply to #2,

That's funny, I thought there were supposed to be 20 audio tracks (i.e., track02 --> track21). Check out this topic</font> in the Sega CD forum to find a better cue sheet.
smile.gif
 
Top