Something for Taelon

GO TO ADMIN PANEL > ADD-ONS AND INSTALL VERTIFORO SIDEBAR TO SEE FORUMS AND SIDEBAR

PowerSoul

New Member
Joined
May 31, 2002
Messages
6
Points
1
Taelon

I am useing Sega Cue maker...???

I hate Xp....

note: is " " supposed to be used in cue sheets..?
 

Taelon

Member
Joined
Jan 8, 2002
Messages
1,451
Points
36
Website
dcforums.net
Do I know you? Do you know me?

Glad you're using Sega Cue Maker...

Sorry to hear you hate XP, though not surprised by it...

No there isn't supposed to be an empty string in your cuesheet... lest you have a filename with leading/trailing spaces somewhere....

Erm. Yeah. I'm still kinda confused here.
 

PowerSoul

New Member
Joined
May 31, 2002
Messages
6
Points
1
You replied with a post to one of my questions earlier..

as for the question the " file " is not blank it has the cue filled out compleatly but still gives the error...ex

FILE "Lunar.iso" BINARY

TRACK 01 MODE1/2048

INDEX 01 00:00:00

POSTGAP 00:02:00

FILE "Lunar_TSS_(US) 02.wav" WAVE

TRACK 02 AUDIO

PREGAP 00:02:00

INDEX 01 00:00:00

FILE "Lunar_TSS_(US) 03.wav" WAVE

TRACK 03 AUDIO

INDEX 01 00:00:00......etc...

Is this right..?
 

Gallstaff

Member
Joined
Feb 2, 2002
Messages
3,600
Points
36
Age
31
Website
Visit site
just load the iso into SCM and i think it should be fine... that's the whole point of the program.
 
Top