Space Adventure Cobra cue sheet!

I drag and drop the cue sheet in to Kega, and I can't get the game to run, as when you press start, the game takes you to the CD player menu. The iso is the correct region, but it will not burn properlly, wth?

FILE "SpaceAdventureCobra.iso" BINARY

TRACK 01 MODE1/2352

INDEX 01 00:00:00

POSTGAP 00:02:00

FILE "SpaceAdventureCobra02.mp3" MP3

TRACK 02 AUDIO

PREGAP 00:02:00

INDEX 01 00:00:00

FILE "SpaceAdventureCobra03.mp3" MP3

TRACK 03 AUDIO

INDEX 01 00:00:00

FILE "SpaceAdventureCobra04.mp3" MP3

TRACK 04 AUDIO

INDEX 01 00:00:00

FILE "SpaceAdventureCobra05.mp3" MP3

TRACK 05 AUDIO

INDEX 01 00:00:00

That's my cue sheet if it helps. Loading the iso is fine, but when you load it by the cue sheet it doesn't work.

Thanks!
 
Top