• Rise from your gwave!

Probably a quickie..!

Discussion in 'General Tech Help & CD Burning Help' started by aLuCaRD_No1, May 7, 2002.

  1. aLuCaRD_No1

    aLuCaRD_No1 New Member

    Hi all, under a new name as last time I was here was nearly a year ago and cant remember my name or pass, lol, anyhow, I got Bug! recently and there is a problem with the cue file, Im not new to burning things and them working, but Ive never had this error on CDRWin before, here it is...

    Code:
    
    Error: Invalid CUE SHEET command at line 209
    
    Illegal MM:SS:FF time value specified!
    
    
    Im thinking the error is the last line in this next bit of code, but Im not too sure if I counted right, Im watching TV at the same time [​IMG]

    Code:
    
      TRACK 69 AUDIO
    
       INDEX 00 24:38:53
    
       INDEX 01 24:40:53
    
      TRACK 70 AUDIO
    
       INDEX 01 99:58:00
    
    
    Think its the 99:58:00 part thats wrong but maybe thats needed for Saturn games or something..? I dunno [​IMG]

    Thanks anyone [​IMG]
     
  2. ExCyber

    ExCyber Staff Member

    Saturn games generally don't need anything special. The problem is almost certainly with the line specifying an offset of 99:58:00, which is probably past the end of the .bin file.
     
  3. MasterAkumaMatata

    MasterAkumaMatata Staff Member

    Where did you get that cue sheet from?

    It seems as though the cue sheet has been sabotaged [​IMG]. Try changing the first 9 with a 2 to make it 29:58:00 or something. If no one beats me to it, I'll try to verify the cue sheet later when I get home.
     
  4. Xavier

    Xavier Mid Boss

    I got that same cuesheet off of ralos ftp few months ago , I made up a track time and the cd doesnt work well .
     
  5. MasterAkumaMatata

    MasterAkumaMatata Staff Member

    Hmm, I realize that I just have the ISO+MP3 version. Also, this game has 72 audio tracks (TRACK02 --> TRACK73). Although the MP3s I have were created from BINChunked WAVs IIRC, the length of TRACK69 still doesn't quite match what you have in your cue sheet.

    Code:
    
    TRACK68 0:10
    
    TRACK69 0:06
    
    TRACK70 0:06
    
    TRACK71 0:06
    
    TRACK72 0:06
    
    TRACK73 0:03
     
  6. MasterAkumaMatata

    MasterAkumaMatata Staff Member

    OK, give this a try:

    Code:
      TRACK 69 AUDIO
    
       INDEX 00 24:38:53
    
       INDEX 01 24:40:53
    
      TRACK 70 AUDIO
    
       INDEX 00 24:44:53
    
       INDEX 01 24:46:53
    
      TRACK 71 AUDIO
    
       INDEX 00 24:50:53
    
       INDEX 01 24:52:53
    
      TRACK 72 AUDIO
    
       INDEX 00 24:56:53
    
       INDEX 01 24:58:53
    
      TRACK 73 AUDIO
    
       INDEX 00 25:02:53
    
       INDEX 01 25:04:53
    
    
     
  7. mal

    mal Member

    If you like I'll rip my original and post the cue sheet when I get home from work.
     
  8. mal

    mal Member

    Give this a try.

    You've got to keep in mind though that this is from a European disc, so you are burning a US copy (not just country coded) it might not work. I don't know if there is any differences between the two.

    It'll only cost you a CDR if it doesn't work. [​IMG]

    FILE BUG!.BIN BINARY

    TRACK 01 MODE1/2048

    INDEX 01 00:00:00

    TRACK 02 AUDIO

    PREGAP 00:02:00

    INDEX 01 12:37:43

    TRACK 03 AUDIO

    INDEX 00 14:44:57

    INDEX 01 14:46:57

    TRACK 04 AUDIO

    INDEX 00 15:31:64

    INDEX 01 15:33:64

    TRACK 05 AUDIO

    INDEX 00 16:17:39

    INDEX 01 16:19:39

    TRACK 06 AUDIO

    INDEX 00 17:02:01

    INDEX 01 17:04:01

    TRACK 07 AUDIO

    INDEX 00 17:46:02

    INDEX 01 17:48:02

    TRACK 08 AUDIO

    INDEX 00 17:53:42

    INDEX 01 17:55:42

    TRACK 09 AUDIO

    INDEX 00 18:05:42

    INDEX 01 18:07:42

    TRACK 10 AUDIO

    INDEX 00 18:11:42

    INDEX 01 18:13:42

    TRACK 11 AUDIO

    INDEX 00 18:17:42

    INDEX 01 18:19:42

    TRACK 12 AUDIO

    INDEX 00 18:23:42

    INDEX 01 18:25:42

    TRACK 13 AUDIO

    INDEX 00 18:29:42

    INDEX 01 18:31:42

    TRACK 14 AUDIO

    INDEX 00 18:35:42

    INDEX 01 18:37:42

    TRACK 15 AUDIO

    INDEX 00 18:41:42

    INDEX 01 18:43:42

    TRACK 16 AUDIO

    INDEX 00 18:47:42

    INDEX 01 18:49:42

    TRACK 17 AUDIO

    INDEX 00 18:53:42

    INDEX 01 18:55:42

    TRACK 18 AUDIO

    INDEX 00 18:59:42

    INDEX 01 19:01:42

    TRACK 19 AUDIO

    INDEX 00 19:05:42

    INDEX 01 19:07:42

    TRACK 20 AUDIO

    INDEX 00 19:11:42

    INDEX 01 19:13:42

    TRACK 21 AUDIO

    INDEX 00 19:17:42

    INDEX 01 19:19:42

    TRACK 22 AUDIO

    INDEX 00 19:23:42

    INDEX 01 19:25:42

    TRACK 23 AUDIO

    INDEX 00 19:29:42

    INDEX 01 19:31:42

    TRACK 24 AUDIO

    INDEX 00 19:35:42

    INDEX 01 19:37:42

    TRACK 25 AUDIO

    INDEX 00 19:41:42

    INDEX 01 19:43:42

    TRACK 26 AUDIO

    INDEX 00 19:47:42

    INDEX 01 19:49:42

    TRACK 27 AUDIO

    INDEX 00 19:53:42

    INDEX 01 19:55:42

    TRACK 28 AUDIO

    INDEX 00 19:59:42

    INDEX 01 20:01:42

    TRACK 29 AUDIO

    INDEX 00 20:05:42

    INDEX 01 20:07:42

    TRACK 30 AUDIO

    INDEX 00 20:11:42

    INDEX 01 20:13:42

    TRACK 31 AUDIO

    INDEX 00 20:17:42

    INDEX 01 20:19:42

    TRACK 32 AUDIO

    INDEX 00 20:23:42

    INDEX 01 20:25:42

    TRACK 33 AUDIO

    INDEX 00 20:29:42

    INDEX 01 20:31:42

    TRACK 34 AUDIO

    INDEX 00 20:35:45

    INDEX 01 20:37:45

    TRACK 35 AUDIO

    INDEX 00 20:41:49

    INDEX 01 20:43:49

    TRACK 36 AUDIO

    INDEX 00 20:47:55

    INDEX 01 20:49:55

    TRACK 37 AUDIO

    INDEX 00 20:53:55

    INDEX 01 20:55:55

    TRACK 38 AUDIO

    INDEX 00 20:59:55

    INDEX 01 21:01:55

    TRACK 39 AUDIO

    INDEX 00 21:05:55

    INDEX 01 21:07:55

    TRACK 40 AUDIO

    INDEX 00 21:11:55

    INDEX 01 21:13:55

    TRACK 41 AUDIO

    INDEX 00 21:17:55

    INDEX 01 21:19:55

    TRACK 42 AUDIO

    INDEX 00 21:23:55

    INDEX 01 21:25:55

    TRACK 43 AUDIO

    INDEX 00 21:29:55

    INDEX 01 21:31:55

    TRACK 44 AUDIO

    INDEX 00 21:35:55

    INDEX 01 21:37:55

    TRACK 45 AUDIO

    INDEX 00 21:41:55

    INDEX 01 21:43:55

    TRACK 46 AUDIO

    INDEX 00 21:47:55

    INDEX 01 21:49:55

    TRACK 47 AUDIO

    INDEX 00 21:53:55

    INDEX 01 21:55:55

    TRACK 48 AUDIO

    INDEX 00 21:59:55

    INDEX 01 22:01:55

    TRACK 49 AUDIO

    INDEX 00 22:05:55

    INDEX 01 22:07:55

    TRACK 50 AUDIO

    INDEX 00 22:11:55

    INDEX 01 22:13:55

    TRACK 51 AUDIO

    INDEX 00 22:17:55

    INDEX 01 22:19:55

    TRACK 52 AUDIO

    INDEX 00 22:23:55

    INDEX 01 22:25:55

    TRACK 53 AUDIO

    INDEX 00 22:29:55

    INDEX 01 22:31:55

    TRACK 54 AUDIO

    INDEX 00 22:35:55

    INDEX 01 22:37:55

    TRACK 55 AUDIO

    INDEX 00 22:41:55

    INDEX 01 22:43:55

    TRACK 56 AUDIO

    INDEX 00 22:47:55

    INDEX 01 22:49:55

    TRACK 57 AUDIO

    INDEX 00 22:53:55

    INDEX 01 22:55:55

    TRACK 58 AUDIO

    INDEX 00 22:59:55

    INDEX 01 23:01:55

    TRACK 59 AUDIO

    INDEX 00 23:05:55

    INDEX 01 23:07:55

    TRACK 60 AUDIO

    INDEX 00 23:14:47

    INDEX 01 23:16:47

    TRACK 61 AUDIO

    INDEX 00 23:20:47

    INDEX 01 23:22:47

    TRACK 62 AUDIO

    INDEX 00 23:26:47

    INDEX 01 23:28:47

    TRACK 63 AUDIO

    INDEX 00 23:32:47

    INDEX 01 23:34:47

    TRACK 64 AUDIO

    INDEX 00 23:42:22

    INDEX 01 23:44:22

    TRACK 65 AUDIO

    INDEX 00 23:54:33

    INDEX 01 23:56:33

    TRACK 66 AUDIO

    INDEX 00 24:08:25

    INDEX 01 24:10:25

    TRACK 67 AUDIO

    INDEX 00 24:15:17

    INDEX 01 24:17:17

    TRACK 68 AUDIO

    INDEX 00 24:26:02

    INDEX 01 24:28:02

    TRACK 69 AUDIO

    INDEX 00 24:36:53

    INDEX 01 24:38:53

    TRACK 70 AUDIO

    INDEX 00 24:42:53

    INDEX 01 24:44:53

    TRACK 71 AUDIO

    INDEX 00 24:48:53

    INDEX 01 24:50:53

    TRACK 72 AUDIO

    INDEX 00 24:54:53

    INDEX 01 24:56:53

    TRACK 73 AUDIO

    INDEX 00 25:00:53

    INDEX 01 25:02:53
     
  9. MasterAkumaMatata

    MasterAkumaMatata Staff Member

    This morning, I did a scan for corruption with BINChunker using mal's cue sheet and it passed with flying colors. I haven't experimented with a real burn yet, but it looks promising.
     
  10. mal

    mal Member

    Sounds good to me. [​IMG]
     

Share This Page