Burning cds with Nero

whiplazh

New Member
Hi! I wonder if one can burn Sega-CD games using Nero Burning Rom. (And No, I don't want to use EZ-CD or CDrWin.) If so, can anyone just give me a short description how to do this? Should I remove pauses (2 sec) between the tracks and so on? Thanks beforehand =)
 

Supergrom

Member
you can burn it with a cuesheet. Not sure about the pauses, but to burn it, you first need to either make a cuesheet by hand or use the sega cuesheet maker, then open nero, click file, burn image, select *.cue from the dropdown selector and browse to the directory with the cue file. The rest should be pretty self-explanatory.
 

maidtina

New Member
Funnily enough thats how i do it. Here's how to make the cuesheet.

Copy this to notepad.

FILE "TRACK01.ISO" BINARY

TRACK 01 MODE1/2048

INDEX 01 00:00:00

FILE "TRACK02.WAV" WAVE

TRACK 02 AUDIO

PREGAP 00:00:00

INDEX 01 00:00:00

POSTGAP 00:00:00

FILE "TRACK03.WAV" WAVE

TRACK 03 AUDIO

PREGAP 00:00:00

INDEX 01 00:00:00

POSTGAP 00:00:00

FILE "TRACK04.WAV" WAVE

TRACK 04 AUDIO

PREGAP 00:00:00

INDEX 01 00:00:00

POSTGAP 00:00:00

Extend it for however many tracks you need. Make sure you have your files labelled "track01.iso", "track02.wav", "track03.wav" etc.

Save the file in the same directory as cuesheet.cue then follow supergrom's instructions. And for gods sake uncheck "hide extentions for known file types" it does help!
 
Top