• Rise from your gwave!

Burning Saturn ISOs with Nero

Discussion in 'Saturn' started by Funkstar De Luxe, Jan 26, 2002.

  1. Funkstar De Luxe

    Funkstar De Luxe New Member

    Can anyone tell me how I can burn Saturn ISOs with Nero 5.5 I really need help. Thanks a lot :)
     
  2. morey

    morey New Member

    You use a cue sheet with it. That's how I do it
     
  3. eatpenguin

    eatpenguin New Member

    !nero does not use cue sheet!

    use one of those iso proggies to convert the iso files

    or simply, use fireburner/cdrwin/blindwrite
     
  4. Braindead13

    Braindead13 New Member

    The two newest versions of Nero support cue-files. You must select file->burn image file

    There you can load cue files.
     
  5. Funkstar De Luxe

    Funkstar De Luxe New Member

    I've tried this but I keep burning coasters :( I'm trying to burn 'Burning Rangers' if that makes any differnece. Here's the cue I made:

    FILE D:BRangers.iso BINARY

    TRACK 01 MODE1/2048

    INDEX 01 00:00:00

    FILE "D: 01_Unknown Artist - Track 2.wav" WAVE

    TRACK 02 AUDIO

    INDEX 01 00:00:00

    TITLE "001_Unknown Artist - Track 2"

    All the file names are correct so I don't know what's wrong :( Please help
     
  6. Funkstar De Luxe

    Funkstar De Luxe New Member

    Ok I've worked out that the problem is that my saturn only reades these disks as audio CD (Ie doesn't look for the protection code.) I used to use EZCD Pro but now I'm running Win2k it doesn't work :(
     
  7. Braindead13

    Braindead13 New Member

    Try Fireburner for bin/cue files-it should work good under Win2K and it is realy easy to use.
     
  8. MasterAkumaMatata

    MasterAkumaMatata Staff Member

    The cue sheet you've made looks faulty. First, there are no postgaps or pregaps. Second, as long as your ISO and WAV files are in the same directory (which is how it should be set up), there is no need to use absolute paths. Third, avoid using long file names, esp. file names containing spaces. Lastly, there is no need to use the TITLE command, esp. when the title you're giving it is meaningless (i.e., "001_Unknown Artist - Track 2" ).

    I suggest you rename the audio file as TRACK02.WAV and try this cue sheet:

    FILE "BRANGERS.ISO" BINARY

    TRACK 01 MODE1/2048

    INDEX 01 00:00:00

    POSTGAP 00:02:00

    FILE TRACK02.WAV WAVE

    TRACK 02 AUDIO

    PREGAP 00:02:00

    INDEX 01 00:00:00


    You may use this cue sheet in Nero, CDRWin, or FireBurner.

    I assume you meant ISO+WAV since Funkstar De Luxe is trying to burn ISO+WAV here, not BIN/CUE.

    (Edited by MasterAkumaMatata at 2:12 am on Jan. 28, 2002)
     
  9. Funkstar De Luxe

    Funkstar De Luxe New Member

    Ok, I got it now. I used 'CDRCue Cuesheet Editor' to make a cue sheet (duh :)) and I burnt it with 'FireBurner'. To work properly FireBurner must burn in 'track at one' mode.
     
  10. MasterAkumaMatata

    MasterAkumaMatata Staff Member

  11. Funkstar De Luxe

    Funkstar De Luxe New Member

    FILE D:BRangers.iso BINARY

    TRACK 01 MODE1/2048

    INDEX 01 00:00:00

    FILE "D: 01_Unknown Artist - Track 2.wav" WAVE

    TRACK 02 AUDIO

    INDEX 01 00:00:00

    TITLE "001_Unknown Artist - Track 2"

    ...
     

Share This Page