Sega saturn cueue sheet maker

GO TO ADMIN PANEL > ADD-ONS AND INSTALL VERTIFORO SIDEBAR TO SEE FORUMS AND SIDEBAR

Gallstaff

Member
Joined
Feb 2, 2002
Messages
3,600
Points
36
Age
31
Website
Visit site
I know for most programs i need to make a cueue sheet to burn the tracks and i got the program but i don't know what to do. I could do it out in notpad by hand but i still wouldn't know what to do. could some one help me?
 

ExCyber

Staff member
Joined
Aug 8, 2001
Messages
4,014
Points
36
Age
37
A typical Saturn/SCD cuesheet will look pretty much like this:

Code:
FILE "TRACK 01.ISO" BINARY

 TRACK 01 MODE1/2048

  INDEX 01 00:00:00

 POSTGAP 00:02:00

FILE "TRACK 02.MP3" MP3

 TRACK 02 AUDIO

  INDEX 01 00:00:00

FILE "TRACK 03.MP3" MP3

 TRACK 03 AUDIO

  INDEX 01 00:00:00
And so on. Adjust for your number of tracks and filenames (and file types, for .WAV files, change the "MP3" after the filename to "WAVE") and you're set, so long as you don't have a game that's really picky about layout or a game with a Mode 2 track...

edit: all of this stuff is explained in a document in the Miscellaneous section... and of course, everyone knows that "miscellaneous" means "burning/ripping tutorials and useful software", right?

(Edited by ExCyber at 10:20 am on Mar. 9, 2002)
 

Sombie

New Member
Joined
Mar 10, 2002
Messages
2
Points
1
Website
Visit site
ok my que sheet is as follows

FILE "C:Documents and SettingsJ DeMartinoDesktopSaturn isoDieharddh01.iso" BINARY

TRACK 01 MODE1/2352

INDEX 01 00:00:00

POSTGAP 00:02:00

FILE "C:Documents and SettingsJ DeMartinoDesktopSaturn isoTRACK2.WAV" WAVE

TRACK 02 AUDIO

PREGAP 00:02:00

INDEX 01 00:00:00

FILE "C:Documents and SettingsJ DeMartinoDesktopSaturn isoTRACK3.WAV" WAVE

TRACK 03 AUDIO

INDEX 01 00:00:00

FILE "C:Documents and SettingsJ DeMartinoDesktopSaturn isoTRACK4.WAV" WAVE

TRACK 04 AUDIO

INDEX 01 00:00:00

FILE "C:Documents and SettingsJ DeMartinoDesktopSaturn isoTRACK5.WAV" WAVE

TRACK 05 AUDIO

INDEX 01 00:00:00

FILE "C:Documents and SettingsJ DeMartinoDesktopSaturn isoTRACK6.WAV" WAVE

TRACK 06 AUDIO

INDEX 01 00:00:00

FILE "C:Documents and SettingsJ DeMartinoDesktopSaturn isoTRACK7.WAV" WAVE

TRACK 07 AUDIO

INDEX 01 00:00:00

FILE "C:Documents and SettingsJ DeMartinoDesktopSaturn isoTRACK8.WAV" WAVE

TRACK 08 AUDIO

INDEX 01 00:00:00

FILE "C:Documents and SettingsJ DeMartinoDesktopSaturn isoTRACK9.WAV" WAVE

TRACK 09 AUDIO

INDEX 01 00:00:00

FILE "C:Documents and SettingsJ DeMartinoDesktopSaturn isoTRACK10.WAV" WAVE

TRACK 10 AUDIO

INDEX 01 00:00:00

FILE "C:Documents and SettingsJ DeMartinoDesktopSaturn isoTRACK11.WAV" WAVE

TRACK 11 AUDIO

INDEX 01 00:00:00

FILE "C:Documents and SettingsJ DeMartinoDesktopSaturn isoTRACK12.WAV" WAVE

TRACK 12 AUDIO

INDEX 01 00:00:00

FILE "C:Documents and SettingsJ DeMartinoDesktopSaturn isoTRACK13.WAV" WAVE

TRACK 13 AUDIO

INDEX 01 00:00:00

FILE "C:Documents and SettingsJ DeMartinoDesktopSaturn isoTRACK14.WAV" WAVE

TRACK 14 AUDIO

INDEX 01 00:00:00

FILE "C:Documents and SettingsJ DeMartinoDesktopSaturn isoTRACK15.WAV" WAVE

TRACK 15 AUDIO

INDEX 01 00:00:00

FILE "C:Documents and SettingsJ DeMartinoDesktopSaturn isoTRACK16.WAV" WAVE

TRACK 16 AUDIO

INDEX 01 00:00:00

FILE "C:Documents and SettingsJ DeMartinoDesktopSaturn isoTRACK17.WAV" WAVE

TRACK 17 AUDIO

INDEX 01 00:00:00

FILE "C:Documents and SettingsJ DeMartinoDesktopSaturn isoTRACK18.WAV" WAVE

TRACK 18 AUDIO

INDEX 01 00:00:00

FILE "C:Documents and SettingsJ DeMartinoDesktopSaturn isoTRACK19.WAV" WAVE

TRACK 19 AUDIO

INDEX 01 00:00:00

FILE "C:Documents and SettingsJ DeMartinoDesktopSaturn isoTRACK20.WAV" WAVE

TRACK 20 AUDIO

INDEX 01 00:00:00

FILE "C:Documents and SettingsJ DeMartinoDesktopSaturn isoTRACK21.WAV" WAVE

TRACK 21 AUDIO

INDEX 01 00:00:00

FILE "C:Documents and SettingsJ DeMartinoDesktopSaturn isoTRACK22.WAV" WAVE

TRACK 22 AUDIO

INDEX 01 00:00:00

FILE "C:Documents and SettingsJ DeMartinoDesktopSaturn isoTRACK23.WAV" WAVE

TRACK 23 AUDIO

INDEX 01 00:00:00

FILE "C:Documents and SettingsJ DeMartinoDesktopSaturn isoTRACK24.WAV" WAVE

TRACK 24

INDEX 01 00:00:00

FILE "C:Documents and SettingsJ DeMartinoDesktopSaturn isoTRACK025.WAV" WAVE

TRACK 25

INDEX 00:00:00

FILE "C:Documents and SettingsJ DeMartinoDesktopSaturn isoTRACK26.WAV" WAVE

TRACK 26

INDEX 01 00:00:00

FILE "C:Documents and SettingsJ DeMartinoDesktopSaturn isoTRACK27.WAV" WAVE

TRACK 27

INDEX 01 00:00:00

FILE "C:Documents and SettingsJ DeMartinoDesktopSaturn isoTRACK28.WAV" WAVE

TRACK 28

INDEX 01 00:00:00

FILE "C:Documents and SettingsJ DeMartinoDesktopSaturn isoTRACK29.WAV" WAVE

TRACK 29

INDEX 01 00:00:00

FILE "C:Documents and SettingsJ DeMartinoDesktopSaturn isoTRACK30.WAV" WAVE

TRACK 30

INDEX 01 00:00:00

FILE "C:Documents and SettingsJ DeMartinoDesktopSaturn isoTRACK31.WAV" WAVE

TRACK 31

INDEX 01 00:00:00

FILE "C:Documents and SettingsJ DeMartinoDesktopSaturn isoTRACK32.WAV" WAVE

TRACK 32

INDEX 01 00:00:00

FILE "C:Documents and SettingsJ DeMartinoDesktopSaturn isoTRACK33.WAV" WAVE

TRACK 33

INDEX 01 00:00:00

FILE "C:Documents and SettingsJ DeMartinoDesktopSaturn isoTRACK34.WAV" WAVE

TRACK 34

INDEX 01 00:00:00

FILE "C:Documents and SettingsJ DeMartinoDesktopSaturn isoTRACK35.WAV" WAVE

TRACK 35

INDEX 01 00:00:00

FILE "C:Documents and SettingsJ DeMartinoDesktopSaturn isoTRACK36.WAV" WAVE

TRACK 36

INDEX 01 00:00:00

FILE "C:Documents and SettingsJ DeMartinoDesktopSaturn isoTRACK37.WAV" WAVE

TRACK 37

INDEX 01 00:00:00

FILE "C:Documents and SettingsJ DeMartinoDesktopSaturn isoTRACK38.WAV" WAVE

TRACK 38

INDEX 01 00:00:00

FILE "C:Documents and SettingsJ DeMartinoDesktopSaturn isoTRACK39.WAV" WAVE

TRACK39

INDEX 01 00:00:00

FILE "C:Documents and SettingsJ DeMartinoDesktopSaturn isoTRACK40.WAV" WAVE

TRACK40

INDEX 01 00:00:00

FILE "C:Documents and SettingsJ DeMartinoDesktopSaturn isoTRACK41.WAV" WAVE

TRACK41

INDEX 01 00:00:00

FILE "C:Documents and SettingsJ DeMartinoDesktopSaturn isoTRACK42.WAV" WAVE

TRACK42

INDEX 01 00:00:00

FILE "C:Documents and SettingsJ DeMartinoDesktopSaturn isoTRACK43.WAV" WAVE

TRACK43

INDEX 01 00:00:00

FILE "C:Documents and SettingsJ DeMartinoDesktopSaturn isoTRACK44.WAV" WAVE

then when i try to add it, it says that there is a error on line 5 and that the file size is not a multiple of the something...

anyways does anyone know whats wrong?
 

MasterAkumaMatata

Staff member
Joined
Apr 18, 2001
Messages
3,300
Points
36
Location
Akuma Island
Website
superakuma5k.homestead.com
I know for most programs i need to make a cueue sheet to burn the tracks and i got the program but i don't know what to do. I could do it out in notpad by hand but i still wouldn't know what to do. could some one help me?
Looks like a job for Lodger's Saturn Cue Maker.


then when i try to add it, it says that there is a error on line 5 and that the file size is not a multiple of the something...

anyways does anyone know whats wrong?
It means the sector size you have MODE1/2352 is incorrect. Change it to MODE1/2048.

You really need to clean up that cue sheet by removing the abosolute paths to those files and put all files (ISO and WAV) in the same directory/folder. Also, it seems that your copy and paste skills took a wrong turn starting at track 24.

For audio tracks 2 --> track 9, pad a zero to the filenames so that they're listed consistently in alpha-numeric order. Then your cue sheet would look nice and neat like the one below and you can re-use it as a WAV cue sheet template where your variables are those highlighted in yellow as well as the number of audio tracks.

FILE "DH01.ISO" BINARY

TRACK 01 MODE1/2048

INDEX 01 00:00:00

POSTGAP 00:02:00

FILE TRACK02.WAV WAVE

TRACK 02 AUDIO

PREGAP 00:02:00

INDEX 01 00:00:00

FILE TRACK03.WAV WAVE

TRACK 03 AUDIO

INDEX 01 00:00:00

FILE TRACK04.WAV WAVE

TRACK 04 AUDIO

INDEX 01 00:00:00

FILE TRACK05.WAV WAVE

TRACK 05 AUDIO

INDEX 01 00:00:00

FILE TRACK06.WAV WAVE

TRACK 06 AUDIO

INDEX 01 00:00:00

FILE TRACK07.WAV WAVE

TRACK 07 AUDIO

INDEX 01 00:00:00

FILE TRACK08.WAV WAVE

TRACK 08 AUDIO

INDEX 01 00:00:00

FILE TRACK09.WAV WAVE

TRACK 09 AUDIO

INDEX 01 00:00:00

FILE TRACK10.WAV WAVE

TRACK 10 AUDIO

INDEX 01 00:00:00

FILE TRACK11.WAV WAVE

TRACK 11 AUDIO

INDEX 01 00:00:00

FILE TRACK12.WAV WAVE

TRACK 12 AUDIO

INDEX 01 00:00:00

FILE TRACK13.WAV WAVE

TRACK 13 AUDIO

INDEX 01 00:00:00

FILE TRACK14.WAV WAVE

TRACK 14 AUDIO

INDEX 01 00:00:00

FILE TRACK15.WAV WAVE

TRACK 15 AUDIO

INDEX 01 00:00:00

FILE TRACK16.WAV WAVE

TRACK 16 AUDIO

INDEX 01 00:00:00

FILE TRACK17.WAV WAVE

TRACK 17 AUDIO

INDEX 01 00:00:00

FILE TRACK18.WAV WAVE

TRACK 18 AUDIO

INDEX 01 00:00:00

FILE TRACK19.WAV WAVE

TRACK 19 AUDIO

INDEX 01 00:00:00

FILE TRACK20.WAV WAVE

TRACK 20 AUDIO

INDEX 01 00:00:00

FILE TRACK21.WAV WAVE

TRACK 21 AUDIO

INDEX 01 00:00:00

FILE TRACK22.WAV WAVE

TRACK 22 AUDIO

INDEX 01 00:00:00

FILE TRACK23.WAV WAVE

TRACK 23 AUDIO

INDEX 01 00:00:00

FILE TRACK24.WAV WAVE

TRACK 24 AUDIO

INDEX 01 00:00:00

FILE TRACK25.WAV WAVE

TRACK 25 AUDIO

INDEX 01 00:00:00

FILE TRACK26.WAV WAVE

TRACK 26 AUDIO

INDEX 01 00:00:00

FILE TRACK27.WAV WAVE

TRACK 27 AUDIO

INDEX 01 00:00:00

FILE TRACK28.WAV WAVE

TRACK 28 AUDIO

INDEX 01 00:00:00

FILE TRACK29.WAV WAVE

TRACK 29 AUDIO

INDEX 01 00:00:00

FILE TRACK30.WAV WAVE

TRACK 30 AUDIO

INDEX 01 00:00:00

FILE TRACK31.WAV WAVE

TRACK 31 AUDIO

INDEX 01 00:00:00

FILE TRACK32.WAV WAVE

TRACK 32 AUDIO

INDEX 01 00:00:00

FILE TRACK33.WAV WAVE

TRACK 33 AUDIO

INDEX 01 00:00:00

FILE TRACK34.WAV WAVE

TRACK 34 AUDIO

INDEX 01 00:00:00

FILE TRACK35.WAV WAVE

TRACK 35 AUDIO

INDEX 01 00:00:00

FILE TRACK36.WAV WAVE

TRACK 36 AUDIO

INDEX 01 00:00:00

FILE TRACK37.WAV WAVE

TRACK 37 AUDIO

INDEX 01 00:00:00

FILE TRACK38.WAV WAVE

TRACK 38 AUDIO

INDEX 01 00:00:00

FILE TRACK39.WAV WAVE

TRACK 39 AUDIO

INDEX 01 00:00:00

FILE TRACK40.WAV WAVE

TRACK 40 AUDIO

INDEX 01 00:00:00

FILE TRACK41.WAV WAVE

TRACK 41 AUDIO

INDEX 01 00:00:00

FILE TRACK42.WAV WAVE

TRACK 42 AUDIO

INDEX 01 00:00:00

FILE TRACK43.WAV WAVE

TRACK 43 AUDIO

INDEX 01 00:00:00

FILE TRACK44.WAV WAVE

TRACK 44 AUDIO

INDEX 01 00:00:00
 
Top