Burning help needed

venom

New Member
I dl'ed Thunder Force Gold Pack 2 from ralos and when unzipped it's in bin/cue form. When I try to burn it using Nero I get and error saying something like "invalid parameter field" and it spits the cd-r back out.

The cue looks like this:

FILE "GOLDPACK_2.BIN" BINARY

TRACK 01 MODE1/2352

INDEX 01 00:00:00

TRACK 02 MODE2/2352

INDEX 00 50:24:48

INDEX 01 50:26:48

TRACK 03 AUDIO

INDEX 00 52:11:64

INDEX 01 52:13:64

TRACK 04 AUDIO

INDEX 00 57:09:05

INDEX 01 57:11:05

Any help would be greatly appreciated.
 

Myname

Member
The only thing I can think of is that there's often a postgap of 2 seconds after the bin and a pregap of 2 seconds for the audio file straight after it. Whether that makes any difference or not I have no idea.
 

venom

New Member
Thanks for the reply, I tried adding the pergap, but now it won't load the cue at all.
If anyone knows what's wrong please tell.
 

Gear

New Member
The problem is the second track. You can try to burn your current cuesheet with cdrwin or fireburner or change your cuesheet to this (but maybe the game will load without videos or with some lockdowns):

FILE "GOLDPACK_2.BIN" BINARY

TRACK 01 MODE1/2352

INDEX 01 00:00:00

TRACK 02 MODE1/2352

INDEX 00 50:24:48

INDEX 01 50:26:48

TRACK 03 AUDIO

INDEX 00 52:11:64

INDEX 01 52:13:64

TRACK 04 AUDIO

INDEX 00 57:09:05

INDEX 01 57:11:05

you also can change the numbers of the mode1/2352 for other valid numbers (wich I don't remember right now and don't know if it would work). This kind of problem has been discussed before so you can search within the forums for it.
 

venom

New Member
That cue seemed to fix the problem and there weren't any problems with the movie either. Thank you!
 
Top