Dao error

GO TO ADMIN PANEL > ADD-ONS AND INSTALL VERTIFORO SIDEBAR TO SEE FORUMS AND SIDEBAR

pixel vision

New Member
Joined
Apr 12, 2002
Messages
7
Points
1
Website
www.pixel-vision.co.uk
10 coaster later, i really need help! - pls

here is the cue file im using - all names and drives etc match

i get an error that says

"START DAO RECORDING" command failed on device 0:1:0 cue sheet was rejected by the cd rom recorder

i have checked the settings or the recorder and DAO is checked, but it is "greyed out" and i can neither turn it on or off - its current state looks "on"

FILE C:\RS.iso BINARY

TRACK 01 MODE1/2048

INDEX 01 00:00:00

POSTGAP 00:02:00

FILE C:\TRACK2.WAV WAVE

TRACK 02 AUDIO

PREGAP 00:02:00

INDEX 01 00:00:00

FILE C:\TRACK3.WAV WAVE

TRACK 03 AUDIO

PREGAP 00:02:00

INDEX 01 00:00:00

FILE C:\TRACK4.WAV WAVE

TRACK 04 AUDIO

PREGAP 00:02:00

INDEX 01 00:00:00

FILE C:\TRACK5.WAV WAVE

TRACK 05 AUDIO

PREGAP 00:02:00

INDEX 01 00:00:00

FILE C:\TRACK6.WAV WAVE

TRACK 06 AUDIO

PREGAP 00:02:00

INDEX 01 00:00:00

FILE C:\TRACK7.WAV WAVE

TRACK 07 AUDIO

PREGAP 00:02:00

INDEX 01 00:00:00

FILE C:\TRACK8.WAV WAVE

TRACK 08 AUDIO

PREGAP 00:02:00

INDEX 01 00:00:00

FILE C:\TRACK9.WAV WAVE

TRACK 09 AUDIO

PREGAP 00:02:00

INDEX 01 00:00:00

FILE C:\TRACK10.WAV WAVE

TRACK 10 AUDIO

PREGAP 00:02:00

INDEX 01 00:00:00

FILE C:\TRACK11.WAV WAVE

TRACK 11 AUDIO

PREGAP 00:02:00

INDEX 01 00:00:00

FILE C:\TRACK12.WAV WAVE

TRACK 12 AUDIO

PREGAP 00:02:00

INDEX 01 00:00:00

FILE C:\TRACK13.WAV WAVE

TRACK 13 AUDIO

PREGAP 00:02:00

INDEX 01 00:00:00

FILE C:\TRACK14.WAV WAVE

TRACK 14 AUDIO

PREGAP 00:02:00

INDEX 01 00:00:00

FILE C:\TRACK15.WAV WAVE

TRACK 15 AUDIO

PREGAP 00:02:00

INDEX 01 00:00:00

FILE C:\TRACK16.WAV WAVE

TRACK 16 AUDIO

PREGAP 00:02:00

INDEX 01 00:00:00

FILE C:\TRACK17.WAV WAVE

TRACK 17 AUDIO

PREGAP 00:02:00

INDEX 01 00:00:00

FILE C:\TRACK18.WAV WAVE

TRACK 18 AUDIO

PREGAP 00:02:00

INDEX 01 00:00:00

FILE C:\TRACK19.WAV WAVE

TRACK 19 AUDIO

PREGAP 00:02:00

INDEX 01 00:00:00

thanks for any help posted

gary
 

Gear

New Member
Joined
Apr 16, 2001
Messages
628
Points
16
Age
38
Website
Visit site
I would help you if you spelled the name correctly...you are using fireburner, right? Burn it with the "sao or cuesheet" option instead of dao.

And don't lie with the coasters
 

pixel vision

New Member
Joined
Apr 12, 2002
Messages
7
Points
1
Website
www.pixel-vision.co.uk
spell the name correct? RS.iso matches my ISO file?

im using CDRWIN and the settings for DAO are greyed out - i can not seem to alter them.

believe me - 10 coasters at least! i know what your thinking - how can anyone be that daft! maybe im just determined to get it working! or maybe i am just daft : ) hey ho, i'll get there in the end
 

Taelon

Member
Joined
Jan 8, 2002
Messages
1,451
Points
36
Website
dcforums.net
Actually, remove all the PREGAP 02:00:00 starting with the third track. Leave the postgap for Track 1 (the iso) and the pregap for Track 2 (first audio) in there.

Most importantly: are any of the WAV files shorter than 6 seconds?? The CDROM specification says no audio tracks can be shorter than 6 seconds, and if one or more of them is, the CD recorder will reject the cue sheet (this is what happened to me using CDRWIN and a game with 3 audio tracks that were too short).

The solution would be to just load the WAVs into a sound editor, append some silence at the end and resave them...did the trick for me :)
 
Top