• Rise from your gwave!

I need a CUE file...

Discussion in 'General Tech Help & CD Burning Help' started by Izlude, Apr 9, 2002.

  1. Izlude

    Izlude New Member

    For Night Into Dreams...I've only the bin file (size : 516 Mb). :(
     
  2. mal

    mal Member

    If no one beats me to it, I'll rip one from my original and post it for you. It should work.

    There seems to be a spate of 'cueless' bins at the moment.

    Wierd.
     
  3. Izlude

    Izlude New Member

    THX !

    seems you're our cue files supplier ! lol :biggrin:
     
  4. mal

    mal Member

    See if this helps

    FILE NIGHTS.BIN BINARY

    TRACK 01 MODE1/2048

    INDEX 01 00:00:00

    TRACK 02 MODE2/2336

    PREGAP 00:03:00

    INDEX 01 04:22:12

    TRACK 03 AUDIO

    PREGAP 00:02:00

    INDEX 01 21:44:44

    TRACK 04 AUDIO

    INDEX 00 21:54:49

    INDEX 01 21:56:49

    TRACK 05 AUDIO

    INDEX 00 22:06:51

    INDEX 01 22:08:51

    TRACK 06 AUDIO

    INDEX 00 22:17:74

    INDEX 01 22:19:74

    TRACK 07 AUDIO

    INDEX 00 22:31:27

    INDEX 01 22:33:27

    TRACK 08 AUDIO

    INDEX 00 22:47:37

    INDEX 01 22:49:37

    TRACK 09 AUDIO

    INDEX 00 24:55:37

    INDEX 01 24:57:37

    TRACK 10 AUDIO

    INDEX 00 27:03:37

    INDEX 01 27:05:37

    TRACK 11 AUDIO

    INDEX 00 29:11:37

    INDEX 01 29:13:37

    TRACK 12 AUDIO

    INDEX 00 31:19:37

    INDEX 01 31:21:37

    TRACK 13 AUDIO

    INDEX 00 33:27:37

    INDEX 01 33:29:37

    TRACK 14 AUDIO

    INDEX 00 35:35:37

    INDEX 01 35:37:37

    TRACK 15 AUDIO

    INDEX 00 37:37:37

    INDEX 01 37:39:37

    TRACK 16 AUDIO

    INDEX 00 38:11:42

    INDEX 01 38:13:42

    TRACK 17 AUDIO

    INDEX 00 40:14:73

    INDEX 01 40:16:73

    TRACK 18 AUDIO

    INDEX 00 41:43:28

    INDEX 01 41:45:28

    TRACK 19 AUDIO

    INDEX 00 43:12:28

    INDEX 01 43:14:28

    TRACK 20 AUDIO

    INDEX 00 44:41:29

    INDEX 01 44:43:29

    TRACK 21 AUDIO

    INDEX 00 46:10:30

    INDEX 01 46:12:30
     
  5. Izlude

    Izlude New Member

    I can read my bin file under CDMage...but something seems to be wrong : how can you get a mode2/2336 track on track 2 ??? is this possible for Saturn games ???
     
  6. mal

    mal Member

    And with NiGHTS it is expected to be there.
     

Share This Page