please help me

soul

New Member
i got a game it has 2 iso files and mp3 i converted the mp3 to wav but i don't know to burn it, on the cue file it has iso T1 as track 1 and iso T2 as track 1 and wav file as track 3 please if anyone could help me i'll be very thankfull.
 

mal

Member
Have you actually tried any burning software yet?

Try loading the cuesheet in CDRWin and burning it. If the cuesheet is correct all should be well.
 

Taelon

Member
Well, something's gotta be wrong if the cuesheet tries to put BOTH isos into Track *1* ... ;-)

So the second iso should go to Track 2...

Most likely what you have here is a Mode1/2048 iso and a Mode2/2336 iso (although it's possible both isos are in raw format so they'd be Mode1/2352 and Mode2/2352 then).

There should be a pregap of 3 seconds before Track 2 and a pregap of 2 seconds before Track 3 (the wav file).

Just to be on the safe side, why not post the cuesheet...
 

MasterAkumaMatata

Staff member
Originally posted by Taelon@July 12 2002,14:16

Well, something's gotta be wrong if the cuesheet tries to put BOTH isos into Track *1* ... ;-)

So the second iso should go to Track 2...

Most likely what you have here is a Mode1/2048 iso and a Mode2/2336 iso (although it's possible both isos are in raw format so they'd be Mode1/2352 and Mode2/2352 then).

There should be a pregap of 3 seconds before Track 2 and a pregap of 2 seconds before Track 3 (the wav file).

Just to be on the safe side, why not post the cuesheet...
An excellent idea :
:
 

soul

New Member
ok here it is guys:

FILE "<game> T01 Mode1 2048.iso" BINARY

TRACK 01 MODE1/2048

INDEX 01 00:00:00

POSTGAP 00:02:00

FILE "<game> T02 Mode2 2352.iso" BINARY

TRACK 01 MODE2/2352

PREGAP 00:02:00

INDEX 01 00:00:00

POSTGAP 00:02:00

FILE "<game>.wav" WAVE

TRACK 03 AUDIO

PREGAP 00:02:00

INDEX 01 00:00:00

now when i load it in cdrwin it gives me an error about line 6 it says the tracks are not in sequantial order so i made file "<game> T02 Mode2 2352.iso" to be a track 2 instead of track1 then i got another error about line 7 the pregap is too small so what i did is delete line 7 and burned it, it seemed to burned well but it has alot of sync problems like what i hear doesn't match what i see.

i want to burn the game the ways it should be burned so please help me
 

mal

Member
Try this

FILE " T01 Mode1 2048.iso" BINARY

TRACK 01 MODE1/2048

INDEX 01 00:00:00

FILE " T02 Mode2 2352.iso" BINARY

TRACK 02 MODE2/2352

PREGAP 00:03:00

INDEX 01 00:00:00

FILE ".wav" WAVE

TRACK 03 AUDIO

PREGAP 00:02:00

INDEX 01 00:00:00

I've just copied the file names you listed. We came up with this a while ago but I still haven't tried it for myself.
 
Top