• Rise from your gwave!

Ripping Worldwide Soccer 97

Discussion in 'Saturn' started by sheep64, Feb 14, 2002.

  1. sheep64

    sheep64 New Member

    Hi there,

    I wanted to rip Worldwide Soccer 97. I did it with CDRwin but there is a Mode 1 Data Track, then a Mode 2 Data Track and at least all the WAV audio tracks.

    What should I do? Why is there a Mode2 Data Track?

    Is that some kind of copyprotection?

    Or is Worldwide Soccer only rippable as Bin/Cue?

    I wanted to make a ISO/MP3 of it.

    I wondered about the MODE2 dump.

    Can anybody tell me why or what to do
     
  2. Ratamahatta

    Ratamahatta Member

    I figure you can do an iso mp3 rip just have 2 iso files, mode 1 first, then the mode 2 iso, then all the mp3's
     
  3. sheep64

    sheep64 New Member

    Yes, sure I can post it like this.

    I only wondered about the Mode2

    I never saw two iso´s to download on FTP..

    When I got my MOD for Saturn I´ll burn that rip and test it. (Sorry I´m, too dumb to do that CD swapping trick :()
     
  4. mal

    mal Member

    This is something I've wondered about for some time.

    Burning mode 1 and mode 2 isos in a bin is easy.

    You can extract the two data tracks easily enough using CDRWin or CDMage.

    But what would you use to burn an iso/iso/mp3 game?

    I've not been able to find cue sheet info for something like this. Does anybody know?

    Unless someone has an answer, I'd stick with a bin/cue rip.
     
  5. ShinJedah

    ShinJedah New Member

    The only way that i know to burn iso/iso/mp3 is 1st:By making a cue file and burning it with CDRwin 2nd:Burning it with NTI CD Maker.

    I would preffer a bin/cue rip double data tracked games though...less stress.
     
  6. mal

    mal Member

    So ShinJedah does an iso/iso/wav cuesheet look something like this?

    FILE track_01.ISO BINARY

    TRACK 01 MODE1/2048

    INDEX 01 00:00:00

    FILE track_02.ISO BINARY

    TRACK 02 MODE2/2336

    PREGAP 00:03:00

    INDEX 01 00:00:00

    FILE track_03.WAV WAVE

    TRACK 03 AUDIO

    PREGAP 00:02:00

    INDEX 01 00:00:00

    and so on for more audio. I'm trying to get my head around the cuesheet for a bin/cue rip of WWS97.

    That would seem to work but I'm not sure about the postgap you usually have after mode 1 data tracks.

    I can easily write cue sheets for mixed mode CDs, but I don't know what it all means...
     
  7. mal

    mal Member

    I guess you don't know after all ShinJedah.
     
  8. megametalgreymon

    megametalgreymon New Member

    ive just ripped mine as bin/cue, then binchucked it to iso/iso/wav then used this cuesheet

    FILE "WORLDWIDE SOCCER 97 (E) T01 Mode1 2048.iso" BINARY

    TRACK 01 MODE1/2048

    INDEX 01 00:00:00

    FILE "WORLDWIDE SOCCER 97 (E) T02 Mode2 2352.iso" BINARY

    TRACK 02 MODE2/2352

    PREGAP 00:03:00

    INDEX 01 00:00:00

    FILE "WORLDWIDE SOCCER 97 (E) T03 Audio 2352.wav" WAVE

    TRACK 03 AUDIO

    PREGAP 00:02:00

    INDEX 01 00:00:00

    FILE "WORLDWIDE SOCCER 97 (E) T04 Audio 2352.wav" WAVE

    TRACK 04 AUDIO

    INDEX 01 00:00:00

    FILE "WORLDWIDE SOCCER 97 (E) T05 Audio 2352.wav" WAVE

    TRACK 05 AUDIO

    INDEX 01 00:00:00

    FILE "WORLDWIDE SOCCER 97 (E) T06 Audio 2352.wav" WAVE

    TRACK 06 AUDIO

    INDEX 01 00:00:00

    FILE "WORLDWIDE SOCCER 97 (E) T07 Audio 2352.wav" WAVE

    TRACK 07 AUDIO

    INDEX 01 00:00:00

    FILE "WORLDWIDE SOCCER 97 (E) T08 Audio 2352.wav" WAVE

    TRACK 08 AUDIO

    INDEX 01 00:00:00

    FILE "WORLDWIDE SOCCER 97 (E) T09 Audio 2352.wav" WAVE

    TRACK 09 AUDIO

    INDEX 01 00:00:00

    FILE "WORLDWIDE SOCCER 97 (E) T10 Audio 2352.wav" WAVE

    TRACK 10 AUDIO

    INDEX 01 00:00:00

    FILE "WORLDWIDE SOCCER 97 (E) T11 Audio 2352.wav" WAVE

    TRACK 11 AUDIO

    INDEX 01 00:00:00

    FILE "WORLDWIDE SOCCER 97 (E) T12 Audio 2352.wav" WAVE

    TRACK 12 AUDIO

    INDEX 01 00:00:00

    FILE "WORLDWIDE SOCCER 97 (E) T13 Audio 2352.wav" WAVE

    TRACK 13 AUDIO

    INDEX 01 00:00:00

    FILE "WORLDWIDE SOCCER 97 (E) T14 Audio 2352.wav" WAVE

    TRACK 14 AUDIO

    INDEX 01 00:00:00

    FILE "WORLDWIDE SOCCER 97 (E) T15 Audio 2352.wav" WAVE

    TRACK 15 AUDIO

    INDEX 01 00:00:00

    FILE "WORLDWIDE SOCCER 97 (E) T16 Audio 2352.wav" WAVE

    TRACK 16 AUDIO

    INDEX 01 00:00:00

    FILE "WORLDWIDE SOCCER 97 (E) T17 Audio 2352.wav" WAVE

    TRACK 17 AUDIO

    INDEX 01 00:00:00

    FILE "WORLDWIDE SOCCER 97 (E) T18 Audio 2352.wav" WAVE

    TRACK 18 AUDIO

    INDEX 01 00:00:00

    all seems to work ok, i constructed this cue from the binfiles cuesheet for the pregaps and such

    id still suggest leaving it as bin/cue to avoid any problems i havent seen yet with the game

    (Edited by megametalgreymon at 12:02 am on Feb. 18, 2002)
     
  9. mal

    mal Member

    That's interesting, and handy to know.

    I was meaning to try it but I'm out of CDRs.

    [edit] Does binchunker convert the second iso track? Because my bin/cue had it as 2336 rather than 2352.

    (Edited by mal at 11:15 am on Feb. 18, 2002)
     
  10. megametalgreymon

    megametalgreymon New Member

    did anyone else try this? just wanted to know if anyone found problems with it

    and binchucker will conver it to what you tell it to in the options, so its possible tyhat yours are set differently, it shouldnt matter though, as long as you reflect those differences in the cue as well
     
  11. Gear

    Gear New Member

    You can also use Blindwrite/Blindread to do the copy, no need to change anything if you use the bwt format.
     
  12. mal

    mal Member

    Yeah, we're aware it can easily be copied. We were just trying to work out if a dual mode disc could be ripped, binchunked, mp3d and later reburnt.
     
  13. Gallstaff

    Gallstaff Member

    I know that this is an old thread, but it is what i needed so what the hell. I just got nights into dreams as a bin/cue format spread across 30 seperate files. how exactly would i do the cue sheet?
     
  14. MasterAkumaMatata

    MasterAkumaMatata Staff Member

    By BIN+CUE format spread across 30 separate files, I assume you mean the BIN+CUE files are compressed into 30 file chunks? If so, all you have to do is uncompress your 30 separate files to get your BIN+CUE. Then load the cue sheet with your desired burning program (e.g., CDRWin, FireBurner, BlindWrite, Nero) that can take cue sheets and burn. Simple as that.
     
  15. Gallstaff

    Gallstaff Member

    So i gotta extract all the cue and bin files in each of the rar's, then load the cue into cdrwin from nights.rar? or do i still need to writie a cue sheet. I have never burnt bin/cue before so this is just different.
     
  16. Gallstaff

    Gallstaff Member

    I really need to know. I've been wanting to play nights ever since i was a wee lad of 8 years...
     
  17. MasterAkumaMatata

    MasterAkumaMatata Staff Member

    BIN+CUE means there is a *.BIN file and *.CUE file. The *.CUE file is the cue sheet. Simple as that.
     
  18. Gallstaff

    Gallstaff Member

    Ok so i just extract the bin and cue from nights.rar and load the cue file into cdrwin? Cool... hope i don't coaster this one.
     
  19. mal

    mal Member

    So do I Gallstaff... so do I. [​IMG]
     
  20. Gallstaff

    Gallstaff Member

    kiddies, leave the room...

    FUCK! SHIT ON A FLAMING SHIT STICK WITH PISS INFECTED CUM BUBBLES AND BLEEDING DOG PISS! AAAAAAAAAHHHHHHHH!!!!!!!!!!

    Ok, i'm better now. this is what happened. I got all the files, extracted the bin and cue fron NiGHTS.rar into the same director. I open up cdrwin and press load cuesheet and then i get this error that says :ERROR: Invalid CUE SHEET command at line1. Unable to find or open file.

    What do i do?!
     

Share This Page