saturn swap trick stuck at black sega screen

Lain

New Member
I'm new to burning saturn games (i have a model 2 saturn), the first game I d/l was a small file iso/mp3 and I did the region change, did mp3 2 wav, and burnt with EzCD Pro, did the swap trick and work perfect.

now I d/l a bigger game (longrisser 4 i think it is called) did the same thing as b4 but it just stopped at the black sega screen.

then I burnt it with nero with a cue made with that sega cue maker thing and it still stops at that screen

can any1 help me
 

Lain

New Member
here is the cue if that helps

FILE "Langrisser IV T01 Mode1 2048.iso" BINARY

TRACK 01 MODE1/2048

INDEX 01 00:00:00

POSTGAP 00:02:00

FILE "Track02.wav" WAVE

TRACK 02 AUDIO

PREGAP 00:02:00

INDEX 01 00:00:00

FILE "Track03.wav" WAVE

TRACK 03 AUDIO

INDEX 01 00:00:00

FILE "Track04.wav" WAVE

TRACK 04 AUDIO

INDEX 01 00:00:00

FILE "Track05.wav" WAVE

TRACK 05 AUDIO

INDEX 01 00:00:00

FILE "Track06.wav" WAVE

TRACK 06 AUDIO

INDEX 01 00:00:00

i tryed to get girigiri to test it but had no luck finding it
 

IBarracudaI

New Member
humm...

Try swapping like this:

1- Power ON your saturn with the copied cd inside.. Wait until the CD completely stops spinning (already on cdplayer)

2- Swap for an original cd.

3- Press RESET, let saturn read the ring from the original cd, and then swap for the copy.
 

Lain

New Member
thanks for the advice

but it still was just stuck at the black screen

I think the cd might be screwed
 

Lain

New Member
the region changer settings were wrong. the first game i did was asian region (i live in Australia) and it work, which must be some kind of must because it really needs the euro one. So now i only burn in euro region stupid thing oh well thanks
 
Top