Trouble burning...

GO TO ADMIN PANEL > ADD-ONS AND INSTALL VERTIFORO SIDEBAR TO SEE FORUMS AND SIDEBAR

broom

New Member
Joined
Apr 27, 2002
Messages
4
Points
1
I recently downloaded NiGHTS... it came with a NiGHTS.bin and NiGHTS.cue. CDRWIN won't let me burn it. It says cd-rom rejected cue file. I've looked at the miscilaneous section but am still confused... help...
 

ExCyber

Staff member
Joined
Aug 8, 2001
Messages
4,014
Points
36
Age
37
Could you post the cue sheet? I think that burner should be able to handle NiGHTS...
 

broom

New Member
Joined
Apr 27, 2002
Messages
4
Points
1
okay this cue sheet says the following:

FILE "NIGHTS.bin" BINARY

TRACK 01 MODE1/2352

INDEX 01 00:00:00

TRACK 02 MODE2/2352

PREGAP 00:03:00

INDEX 01 04:20:60

TRACK 03 AUDIO

PREGAP 00:02:00

INDEX 01 21:43:17

TRACK 04 AUDIO

INDEX 00 21:53:22

INDEX 01 21:55:22

TRACK 05 AUDIO

INDEX 00 22:05:24

INDEX 01 22:07:24

TRACK 06 AUDIO

INDEX 00 22:16:47

INDEX 01 22:18:47

TRACK 07 AUDIO

INDEX 00 22:30:73

INDEX 01 22:32:00

TRACK 08 AUDIO

INDEX 00 22:46:08

INDEX 01 22:48:10

TRACK 09 AUDIO

INDEX 00 24:54:08

INDEX 01 24:56:10

TRACK 10 AUDIO

INDEX 00 27:02:08

INDEX 01 27:04:10

TRACK 11 AUDIO

INDEX 00 29:10:08

INDEX 01 29:12:10

TRACK 12 AUDIO

INDEX 00 31:18:08

INDEX 01 31:20:10

TRACK 13 AUDIO

INDEX 00 33:26:08

INDEX 01 33:28:10

TRACK 14 AUDIO

INDEX 00 35:34:08

INDEX 01 35:36:10

TRACK 15 AUDIO

INDEX 00 37:36:08

INDEX 01 37:38:10

TRACK 16 AUDIO

INDEX 00 38:10:13

INDEX 01 38:12:15

TRACK 17 AUDIO

INDEX 00 40:13:46

INDEX 01 40:15:46

TRACK 18 AUDIO

INDEX 00 41:42:01

INDEX 01 41:44:01

TRACK 19 AUDIO

INDEX 00 43:11:01

INDEX 01 43:13:01

TRACK 20 AUDIO

INDEX 00 44:40:02

INDEX 01 44:42:02

TRACK 21 AUDIO

INDEX 00 46:09:01

INDEX 01 46:11:03
 

broom

New Member
Joined
Apr 27, 2002
Messages
4
Points
1
CDRWIN won't burn because of this part:

TRACK 01 MODE1/2352

INDEX 01 00:00:00

TRACK 02 MODE2/2352

PREGAP 00:03:00

AYE!
 

megametalgreymon

New Member
Joined
Apr 17, 2001
Messages
705
Points
16
Age
37
Website
Visit site
try this in place of those lines

FILE "NIGHTS.BIN" BINARY

TRACK 01 MODE1/2048

INDEX 01 00:00:00

TRACK 02 MODE2/2336

PREGAP 00:03:00

INDEX 01 04:22:12

note the different numbers after the / on lines 2 and 4

if that doesnt work its probabbly a raw bin rather than a cooked one, in which case try

FILE "NIGHTS.BIN" BINARY

TRACK 01 MODE1/2352

INDEX 01 00:00:00

TRACK 02 MODE2/2352

PREGAP 00:03:00

INDEX 01 04:22:12
 

mal

Member
Joined
May 14, 2001
Messages
7,123
Points
36
Age
44
Website
Visit site
I recently posted a cue sheet for NiGHTS for someone and it had the 2048/2336 combination.
Originally posted by megametalgreymon@April 29 2002,07:42

FILE "NIGHTS.BIN" BINARY

TRACK 01 MODE1/2352

INDEX 01 00:00:00

TRACK 02 MODE2/2352

PREGAP 00:03:00

INDEX 01 04:22:12
Isn't that what broom already has?
 
Top