Where Can I Find Cue Sheets?

Swampfly

New Member
Im looking for a place to find cuesheets for my sega cd isos. Is there a place where you can just download them? Im looking for Snatchers.
 
Hmmmmm, I remember sumone was putting together a place. dont knwo if it ever came to be....I think it did though. Can anyone help this guy?
 

crystalmethod

New Member
Download a little program called the Sega Cue Sheet Maker. Cue sheets are generally different for different games and different rips. Also, Snatcher has a a specialized cue sheet if I remember correctly. Master Akuma Matata used to have it somewhere here, well, at least on the old boards. You should ask him.
 

mal

Member
I'm not MasterAkumaMatata, but I've ripped off one of his posts to bring you this:


<table border="0" align="center" width="95%" cellpadding="3" cellspacing="1"><tr><td>SErviceGAmesFAN's Custom Cue Sheet:</td></tr><tr><td id="CODE">FILE "SNATCHER.ISO" BINARY

TRACK 01 MODE1/2048

INDEX 01 00:00:00

FILE "TRACK02.WAV" WAVE

TRACK 02 AUDIO

PREGAP 00:02:01

INDEX 01 00:00:00

POSTGAP 00:02:08

FILE "TRACK03.WAV" WAVE

TRACK 03 AUDIO

PREGAP 00:02:00

INDEX 01 00:00:00

POSTGAP 00:00:74

FILE "TRACK04.WAV" WAVE

TRACK 04 AUDIO

PREGAP 00:02:00

INDEX 01 00:00:00

POSTGAP 00:03:55

FILE "TRACK05.WAV" WAVE

TRACK 05 AUDIO

PREGAP 00:02:00

INDEX 01 00:00:00

POSTGAP 00:01:24

FILE "TRACK06.WAV" WAVE

TRACK 06 AUDIO

PREGAP 00:02:00

INDEX 01 00:00:00

POSTGAP 00:00:49

FILE "TRACK07.WAV" WAVE

TRACK 07 AUDIO

PREGAP 00:02:00

INDEX 01 00:00:00

POSTGAP 00:00:73

FILE "TRACK08.WAV" WAVE

TRACK 08 AUDIO

PREGAP 00:02:00

INDEX 01 00:00:00

POSTGAP 00:00:52

FILE "TRACK09.WAV" WAVE

TRACK 09 AUDIO

PREGAP 00:02:00

INDEX 01 00:00:00

POSTGAP 00:00:51

FILE "TRACK10.WAV" WAVE

TRACK 10 AUDIO

PREGAP 00:02:00

INDEX 01 00:00:00

POSTGAP 00:00:28

FILE "TRACK11.WAV" WAVE

TRACK 11 AUDIO

PREGAP 00:02:00

INDEX 01 00:00:00

POSTGAP 00:00:49

FILE "TRACK12.WAV" WAVE

TRACK 12 AUDIO

PREGAP 00:02:00

INDEX 01 00:00:00

POSTGAP 00:00:53

FILE "TRACK13.WAV" WAVE

TRACK 13 AUDIO

PREGAP 00:02:00

INDEX 01 00:00:00

POSTGAP 00:01:03

FILE "TRACK14.WAV" WAVE

TRACK 14 AUDIO

PREGAP 00:02:00

INDEX 01 00:00:00

POSTGAP 00:02:07

FILE "TRACK15.WAV" WAVE

TRACK 15 AUDIO

PREGAP 00:02:00

INDEX 01 00:00:00

POSTGAP 00:00:42

FILE "TRACK16.WAV" WAVE

TRACK 16 AUDIO

PREGAP 00:02:00

INDEX 01 00:00:00

POSTGAP 00:00:59

FILE "TRACK17.WAV" WAVE

TRACK 17 AUDIO

PREGAP 00:02:00

INDEX 01 00:00:00

POSTGAP 00:00:36

FILE "TRACK18.WAV" WAVE

TRACK 18 AUDIO

PREGAP 00:02:00

INDEX 01 00:00:00

POSTGAP 00:00:60

FILE "TRACK19.WAV" WAVE

TRACK 19 AUDIO

PREGAP 00:02:00

INDEX 01 00:00:00

POSTGAP 00:01:52

FILE "TRACK20.WAV" WAVE

TRACK 20 AUDIO

PREGAP 00:02:00

INDEX 01 00:00:00

POSTGAP 00:00:31

FILE "TRACK21.WAV" WAVE

TRACK 21 AUDIO

PREGAP 00:02:00

INDEX 01 00:00:00

POSTGAP 00:02:00

</td></tr></table>
 

MasterAkumaMatata

Staff member
I'm not FAKK2, but I've ripped off one of his releases to bring you this:


<table border="0" align="center" width="95%" cellpadding="3" cellspacing="1"><tr><td>Cue Sheet from FAKK2's Proper Rip of Snatcher (U.S. version):</td></tr><tr><td id="CODE"><font face=courier>FILE "SNATCHER SEGA CD PROPER RIP BY FAKK2.BIN" BINARY

TRACK 01 MODE1/2352

INDEX 01 00:00:00

TRACK 02 AUDIO

PREGAP 00:02:00

INDEX 01 12:26:64

TRACK 03 AUDIO

INDEX 00 12:31:34

INDEX 01 12:33:34

TRACK 04 AUDIO

INDEX 00 14:46:29

INDEX 01 14:48:29

TRACK 05 AUDIO

INDEX 00 19:20:34

INDEX 01 19:22:34

TRACK 06 AUDIO

INDEX 00 19:41:39

INDEX 01 19:43:39

TRACK 07 AUDIO

INDEX 00 20:53:56

INDEX 01 20:55:56

TRACK 08 AUDIO

INDEX 00 23:40:33

INDEX 01 23:42:33

TRACK 09 AUDIO

INDEX 00 27:14:73

INDEX 01 27:16:73

TRACK 10 AUDIO

INDEX 00 28:42:26

INDEX 01 28:44:26

TRACK 11 AUDIO

INDEX 00 30:51:32

INDEX 01 30:53:32

TRACK 12 AUDIO

INDEX 00 32:40:05

INDEX 01 32:42:05

TRACK 13 AUDIO

INDEX 00 37:09:58

INDEX 01 37:11:58

TRACK 14 AUDIO

INDEX 00 39:04:55

INDEX 01 39:06:55

TRACK 15 AUDIO

INDEX 00 40:26:47

INDEX 01 40:28:47

TRACK 16 AUDIO

INDEX 00 41:44:55

INDEX 01 41:46:55

TRACK 17 AUDIO

INDEX 00 42:01:67

INDEX 01 42:03:67

TRACK 18 AUDIO

INDEX 00 43:40:66

INDEX 01 43:42:66

TRACK 19 AUDIO

INDEX 00 44:28:01

INDEX 01 44:30:01

TRACK 20 AUDIO

INDEX 00 51:30:48

INDEX 01 51:32:48

TRACK 21 AUDIO

INDEX 00 52:03:58

INDEX 01 52:05:58</font></td></tr></table>
 

sizone

New Member
i burnt snatcher using a sega cue sheet maker cue sheet and just played it from start to finish today with no audio sync or gfx or other problems

are we talking the segacd version or the saturn version here?

what a wonderful game, kinda short though

it's also pretty sad that a game like that will never ever again be released in the u.s.

not without one of those Ao17 ratings anyway and i've yet to see one of those

coherent and deep plot, disgusting graphic gore and violence and barely concealed 18 year old nipples

yup they just don't make games like that anymore

come to think of it i don't think they ever made 'em like that before hand either
 

MasterAkumaMatata

Staff member
Originally posted by sizone@Dec. 25 2002, 2:33 am

i burnt snatcher using a sega cue sheet maker cue sheet and just played it from start to finish today with no audio sync or gfx or other problems

are we talking the segacd version or the saturn version here?

what a wonderful game, kinda short though

it's also pretty sad that a game like that will never ever again be released in the u.s.

not without one of those Ao17 ratings anyway and i've yet to see one of those

coherent and deep plot, disgusting graphic gore and violence and barely concealed 18 year old nipples

yup they just don't make games like that anymore

come to think of it i don't think they ever made 'em like that before hand either
Hmm, the name of this forum is Sega CD. Swampfly is looking for cue sheets for Sega CD games. Both (ISO+WAV and BIN+CUE) cue sheets posted by mal and myself are for the Sega CD version of Snatcher. Which version did you burn?

 

sizone

New Member
the one on home of the underdogs

it's a 109m multisession iso with 21 audio tracks

beyond that ...?

oh you mean segacd or saturn

segacd, i caught that about 3 seconds after the original post

i'm just perplexed as far as the need of a custom cue sheet

and you should know by now that i have 0 regard for forum title or thread heading
 

mal

Member
I believe Snatcher needs a specific cue sheet to keep the audio and video in sync. They made creative use of pre and post gaps. ???

I think Shining Force would be fine with a cuesheet generated by Lodger's Cue Maker, which can be found here.
 

Swampfly

New Member
Alright thanks guys. I used Mal's version of the que sheet for the snatcher iso i have. It seems to work great, but I still need to beat the game. I still need que sheets fo the 25+ other iso's I have. Does anyone know of a specific place to get them? I wish SX would get a new section and offer them that would rock!
 

sizone

New Member
yeah, i was having music problems with shining force because i was missing half the mp3's (duh)

but GODAMNIT i swear snatcher worked just fine for me with a standard cue sheet, lips where in sync with the dialouge from start to finish

there were a couple of scenes that didn't have any bg music though so i may be wrong

the part when metal and gillian are first crawling into the subway after random blows himself up comes to mind
 
Top