cant get this image to work

Meteo

New Member
ok heres the cue file

FILE "SAKURA TAISEN STEAM RADIO SHOW CD2.BIN" BINARY

TRACK 01 MODE1/2352

INDEX 01 00:00:00

TRACK 02 MODE2/2352

PREGAP 00:02:00

INDEX 01 03:11:15

TRACK 03 AUDIO

PREGAP 00:02:00

INDEX 01 49:07:33

now cdrwin complains about Invalid cue sheet command at line 5 illegal two-part pregap length specified (too small).

so i tried alcohol, and it just burnt me a game that wouldnt boot. fireburner gives me write errors...

...what can i do to fix this cuesheet?
 

Taelon

Member
The pregap you mentioned (the one after track 2) has to be THREE seconds, not two.

The second pregap (after track 3, audio) is correct.
 
Top