Correcting a .cue

I'm trying to burn Game Paradise and get invalid parameter messages when I try. I think the index 00's are the problem, but could you have a look and tell me how to fix it.

FILE "GAME TENGOKU (J).BIN" BINARY

TRACK 01 MODE1/2352

INDEX 01 00:00:00

TRACK 02 MODE2/2352

PREGAP 00:03:00

INDEX 01 15:50:56

TRACK 03 AUDIO

PREGAP 00:02:00

INDEX 01 31:07:24

TRACK 04 AUDIO

INDEX 00 32:14:25

INDEX 01 32:16:25

TRACK 05 AUDIO

INDEX 00 34:20:26

INDEX 01 34:22:26

TRACK 06 AUDIO

INDEX 00 38:22:27

INDEX 01 38:24:27

TRACK 07 AUDIO

INDEX 00 43:32:28

INDEX 01 43:34:28

TRACK 08 AUDIO

INDEX 00 47:46:29

INDEX 01 47:48:29

TRACK 09 AUDIO

INDEX 00 49:28:30

INDEX 01 49:30:30

TRACK 10 AUDIO

INDEX 00 51:10:31

INDEX 01 51:12:31

TRACK 11 AUDIO

INDEX 00 55:42:32

INDEX 01 55:44:32

TRACK 12 AUDIO

INDEX 00 59:00:33

INDEX 01 59:02:33

Thanks in advance.
 
Sorry, I forgot to mention that, I'm using Nero 5048 to burn it

The exact messsage is:

Start of burn process at 4x (600 KB/s)

Invalid field in parameter

Could not perform start of Disc At Once

Burnprocess failed at 4x (600 KB/s)

I got it off of Ralos (it was in the upload folder)
 
I would try it, but I don't have that option

EDIT: Nevermind, I fixed the problem with a bit of trial and error
 
I switched track 2 to mode1 and that did the trick. I probably lost an FMV or something doing that though, the game plays fine far as I can tell.
 

mal

Established Member
Yeah, someone posted that as a work around some time ago.

If you still want to try burning it 'properly', maybe try burning it with either CDRwin or blindwrite.
 

MasterAkumaMatata

Established Member
Originally posted by venom@Sep. 22 2002, 9:12 pm

I switched track 2 to mode1 and that did the trick. I probably lost an FMV or something doing that though, the game plays fine far as I can tell.

That trick might or might not work, depending on the game. If you run into trouble later in the game, take mal's advice and use CDRWin or BlindWrite.
 
Well I beat it and everything seemed correct. Thanks for the advice, I'll try Blindwrite if it happens again because my burner doesn't like CDR-win.
 
I would upgrade, but anything newer and my burner isn't detected by Nero (HP 8200+), so I'm kind of stuck with it.
 
Top