• Rise from your gwave!

DOA .Cue Help

Discussion in 'General Tech Help & CD Burning Help' started by CyberOpticz187, Sep 7, 2001.

  1. CyberOpticz187

    CyberOpticz187 New Member

    Has any one got a DOA.cue sheet because i dont know how the tracks are set out. i get an error me messege saying that there is an error on line six.

    this is the cue im using

    FILE doa01.ISO BINARY

    TRACK 01 MODE1/2048

    INDEX 01 00:00:00

    POSTGAP 00:02:00

    FILE TRACK00.WAV WAVE

    TRACK 00 AUDIO

    PREGAP 00:02:00

    INDEX 01 00:00:00

    FILE TRACK01.WAV WAVE

    TRACK 01 AUDIO

    INDEX 01 00:00:00

    FILE TRACK02.WAV WAVE

    TRACK 02 AUDIO

    INDEX 01 00:00:00

    FILE TRACK03.WAV WAVE

    TRACK 03 AUDIO

    INDEX 01 00:00:00

    FILE TRACK04.WAV WAVE

    TRACK 04 AUDIO

    INDEX 01 00:00:00

    FILE TRACK05.WAV WAVE

    TRACK 05 AUDIO

    INDEX 01 00:00:00

    FILE TRACK06.WAV WAVE

    TRACK 06 AUDIO

    INDEX 01 00:00:00

    FILE TRACK07.WAV WAVE

    TRACK 07 AUDIO

    INDEX 01 00:00:00

    FILE TRACK08.WAV WAVE

    TRACK 08 AUDIO

    INDEX 01 00:00:00

    FILE TRACK09.WAV WAVE

    TRACK 09 AUDIO

    INDEX 01 00:00:00

    FILE TRACK10.WAV WAVE

    TRACK 10 AUDIO

    INDEX 01 00:00:00

    FILE TRACK11.WAV WAVE

    TRACK 11 AUDIO

    INDEX 01 00:00:00

    FILE TRACK12.WAV WAVE

    TRACK 12 AUDIO

    INDEX 01 00:00:00

    FILE TRACK13.WAV WAVE

    TRACK 13 AUDIO

    INDEX 01 00:00:00

    FILE TRACK14.WAV WAVE

    TRACK 14 AUDIO

    INDEX 01 00:00:00

    FILE TRACK15.WAV WAVE

    TRACK 15 AUDIO

    INDEX 01 00:00:00

    FILE TRACK16.WAV WAVE

    TRACK 16 AUDIO

    INDEX 01 00:00:00

    FILE TRACK17.WAV WAVE

    TRACK 17 AUDIO

    INDEX 01 00:00:00

    FILE TRACK18.WAV WAVE

    TRACK 18 AUDIO

    INDEX 01 00:00:00

    FILE TRACK19.WAV WAVE

    TRACK 19 AUDIO

    INDEX 01 00:00:00

    FILE TRACK20.WAV WAVE

    TRACK 20 AUDIO

    INDEX 01 00:00:00

    FILE TRACK21.WAV WAVE

    TRACK 21 AUDIO

    INDEX 01 00:00:00

    FILE TRACK22.WAV WAVE

    TRACK 22 AUDIO

    INDEX 01 00:00:00

    FILE TRACK23.WAV WAVE

    TRACK 23 AUDIO

    INDEX 01 00:00:00
     
  2. MasterAkumaMatata

    MasterAkumaMatata Staff Member

    Actually, the error starts at line 6. Line 6 should be TRACK 02, not TRACK 00. Therefore, the numbering of the rest of the tracks and your WAV files should be adjusted accordingly. Besides, tracks start out with 01 and then increment by one.

    [color=FF2121]The general layout of Saturn mixed mode disc is as follows:[/color]

    TRACK 01 -> DATA (mode1)

    TRACK 02 -> AUDIO

    TRACK 03 -> AUDIO

    .

    .

    .

    TRACK N -> AUDIO


    [color=FF2121]However, there are some games that contain 2 data tracks; their layout should look like this:[/color]

    TRACK 01 -> DATA (mode1)

    TRACK 02 -> DATA (mode2)

    TRACK 03 -> AUDIO

    .

    .

    .

    TRACK N -> AUDIO


    (Edited by MasterAkumaMatata at 1:15 pm on Jan. 2, 2002)
     
  3. CyberOpticz187

    CyberOpticz187 New Member

  4. MasterAkumaMatata

    MasterAkumaMatata Staff Member

    No problem, glad to have helped another Akuma.
     
  5. RadSil

    RadSil New Member

    Okay, I vote MasterAkumaMatata most helpful :)
     
  6. RadSil

    RadSil New Member

    Er, no. Sorry. :)
     

Share This Page