How can I burn this cue/bin ( dual modes ) ?

GO TO ADMIN PANEL > ADD-ONS AND INSTALL VERTIFORO SIDEBAR TO SEE FORUMS AND SIDEBAR

pinkstone

New Member
Joined
Jan 26, 2002
Messages
9
Points
1
Website
Visit site
Hi, I have this cue/bin :

FILE NGE.BIN BINARY

TRACK 01 MODE1/2048

INDEX 01 00:00:00

TRACK 02 MODE2/2336

PREGAP 00:03:00

INDEX 01 07:39:36

TRACK 03 AUDIO

PREGAP 00:02:00

INDEX 01 46:51:13

The game is Evangelion - 2nd impression and I have a HP 9200 burner and I´m on Win XP . I tried with Fireburner and CDRWin ( both ejects the cue file ) .

Thanks in advance
 
Top