Langrisser 3 trouble with cue sheet

Bors

New Member
Well, i found Langrisser 3 on the net, and there is a little problem when it come to burn it. The cue sheet is incorrect, and without that i cannot go further. Can someone provide me with that Langrisser 3 cue sheet or maybe someone can help me to correct it, let's see the cue sheet is as follow:

FILE "LANGRISSER3.BIN" BINARY

TRACK 01 MODE1/2352

INDEX 01 00:00:00

TRACK 02 MODE2/2352

PREGAP 00:03:00

INDEX 01 07:17:05

TRACK 03 AUDIO

PREGAP 00:02:00

INDEX 01 19:44:72

TRACK 04 AUDIO

INDEX 00 20:17:52

INDEX 01 20:19:52

TRACK 05 AUDIO

INDEX 00 20:58:69

INDEX 01 21:00:69

TRACK 06 AUDIO

INDEX 00 22:00:70

INDEX 01 22:02:70

TRACK 07 AUDIO

INDEX 00 22:41:70

INDEX 01 22:43:70

TRACK 08 AUDIO

INDEX 00 23:24:13

INDEX 01 23:26:13

TRACK 09 AUDIO

INDEX 00 24:00:51

INDEX 01 24:02:51

TRACK 10 AUDIO

INDEX 00 24:35:30

INDEX 01 24:37:30

TRACK 11 AUDIO

INDEX 00 25:28:64

INDEX 01 25:30:64

TRACK 12 AUDIO

INDEX 00 26:09:56

INDEX 01 26:11:56

TRACK 13 AUDIO

INDEX 00 26:48:03

INDEX 01 26:50:03

TRACK 14 AUDIO

INDEX 00 27:22:62

INDEX 01 27:24:62

TRACK 15 AUDIO

INDEX 00 28:01:39

INDEX 01 28:03:39

TRACK 16 AUDIO

INDEX 00 28:51:31

INDEX 01 28:53:31

TRACK 17 AUDIO

INDEX 00 29:39:02

INDEX 01 29:41:02

TRACK 18 AUDIO

INDEX 00 30:44:04

INDEX 01 30:46:04

TRACK 19 AUDIO

INDEX 00 31:36:21

INDEX 01 31:38:21

TRACK 20 AUDIO

INDEX 00 32:16:24

INDEX 01 32:18:24

TRACK 21 AUDIO

INDEX 00 32:57:60

INDEX 01 32:59:60

TRACK 22 AUDIO

INDEX 00 34:46:09

INDEX 01 34:48:09

4:46:09

INDEX 01 34:48:09

They say there an error at line 67, i don't know quite well about that, but i'd appreciate help for sure...

Thx

Bors
 

MasterAkumaMatata

Staff member
Just omit those last two lines and you should be fine:

Code:
FILE "LANGRISSER3.BIN" BINARY

 TRACK 01 MODE1/2352

  INDEX 01 00:00:00

 TRACK 02 MODE2/2352

  PREGAP 00:03:00

  INDEX 01 07:17:05

 TRACK 03 AUDIO

  PREGAP 00:02:00

  INDEX 01 19:44:72

 TRACK 04 AUDIO

  INDEX 00 20:17:52

  INDEX 01 20:19:52

 TRACK 05 AUDIO

  INDEX 00 20:58:69

  INDEX 01 21:00:69

 TRACK 06 AUDIO

  INDEX 00 22:00:70

  INDEX 01 22:02:70

 TRACK 07 AUDIO

  INDEX 00 22:41:70

  INDEX 01 22:43:70

 TRACK 08 AUDIO

  INDEX 00 23:24:13

  INDEX 01 23:26:13

 TRACK 09 AUDIO

  INDEX 00 24:00:51

  INDEX 01 24:02:51

 TRACK 10 AUDIO

  INDEX 00 24:35:30

  INDEX 01 24:37:30

 TRACK 11 AUDIO

  INDEX 00 25:28:64

  INDEX 01 25:30:64

 TRACK 12 AUDIO

  INDEX 00 26:09:56

  INDEX 01 26:11:56

 TRACK 13 AUDIO

  INDEX 00 26:48:03

  INDEX 01 26:50:03

 TRACK 14 AUDIO

  INDEX 00 27:22:62

  INDEX 01 27:24:62

 TRACK 15 AUDIO

  INDEX 00 28:01:39

  INDEX 01 28:03:39

 TRACK 16 AUDIO

  INDEX 00 28:51:31

  INDEX 01 28:53:31

 TRACK 17 AUDIO

  INDEX 00 29:39:02

  INDEX 01 29:41:02

 TRACK 18 AUDIO

  INDEX 00 30:44:04

  INDEX 01 30:46:04

 TRACK 19 AUDIO

  INDEX 00 31:36:21

  INDEX 01 31:38:21

 TRACK 20 AUDIO

  INDEX 00 32:16:24

  INDEX 01 32:18:24

 TRACK 21 AUDIO

  INDEX 00 32:57:60

  INDEX 01 32:59:60

 TRACK 22 AUDIO

  INDEX 00 34:46:09

  INDEX 01 34:48:09
 
Top