Need help burning a game

silkd

New Member
I need help burning Detana Twinbee Pack. CDRwin rejects the .cue saying "Cuesheet was rejected by CDROM recorder"

Easy CD Pro says there isn't enough room on the disk which I know is wrong. Please help. Here is the .cue

Code:
FILE "DETANA TWINBEE YAHHO! DELUXE PACK (SATURN).BIN" BINARY

 TRACK 01 MODE1/2048

  INDEX 01 00:00:00

 TRACK 02 AUDIO

  PREGAP 00:02:00

  INDEX 01 58:23:29

 TRACK 03 AUDIO

  INDEX 00 58:38:18

  INDEX 01 58:40:20
 

Taelon

Member
Gear, you mortal fool!! NO!!


The pregap MUST stay in the cuesheet. But the REAL problem is that this bin/cue contains a cooked data track (2048 bytes/sector) rather than raw-mode data (2352 bytes/sector). Since audio tracks are always 2352 bytes/sector, this particular cuesheet is asking the CD recorder to perform a sector size switch in the middle of burning the image, which many recorders apparently refuse to do.

Thus, the solution would be to convert the bin/cue into an iso/wav set and burn it that way (with a new cuesheet of course).

Removing the pregap WILL BREAK THE WHOLE IMAGE!
 

IBarracudaI

New Member
I'm afraid Taelon is right Gear


Looks like another burner that cant do that jobs... I though mine was the _only_ of that kind


Edit: You could check this old thread , maybe it will help you ...
 
Top