Nights - Having problems...

Rorscach

New Member
<Deep Breath>

Hey all. I'm new to the scene, and am having problems burning NiGHTS. I downloaded it from Ralos, unzipped (unrared - whatever) and get the typical BIN and CUE files. I tried cpying it with CDRWIN but noticed that instead of having a 'total no of tracks' as 21, it was something like 41. Needless to say it burned badly.

I tried using WinISO to convert the BIN into an ISO, but get 2 isos instead. When i generate a cuesheet with sega cue maker it skips the second iso:

FILE "nights00.ISO" BINARY

TRACK 01 MODE1/2048

INDEX 01 00:00:00

POSTGAP 00:02:00

FILE "nights02.WAV" WAVE

TRACK 02 AUDIO

PREGAP 00:02:00

INDEX 01 00:00:00

FILE "nights03.WAV" WAVE

TRACK 03 AUDIO

INDEX 01 00:00:00

FILE "nights04.WAV" WAVE

TRACK 04 AUDIO

INDEX 01 00:00:00

FILE "nights05.WAV" WAVE

TRACK 05 AUDIO

INDEX 01 00:00:00

FILE "nights06.WAV" WAVE

TRACK 06 AUDIO

INDEX 01 00:00:00

FILE "nights07.WAV" WAVE

TRACK 07 AUDIO

INDEX 01 00:00:00

FILE "nights08.WAV" WAVE

TRACK 08 AUDIO

INDEX 01 00:00:00

FILE "nights09.WAV" WAVE

TRACK 09 AUDIO

INDEX 01 00:00:00

FILE "nights10.WAV" WAVE

TRACK 10 AUDIO

INDEX 01 00:00:00

FILE "nights11.WAV" WAVE

TRACK 11 AUDIO

INDEX 01 00:00:00

FILE "nights12.WAV" WAVE

TRACK 12 AUDIO

INDEX 01 00:00:00

FILE "nights13.WAV" WAVE

TRACK 13 AUDIO

INDEX 01 00:00:00

FILE "nights14.WAV" WAVE

TRACK 14 AUDIO

INDEX 01 00:00:00

FILE "nights15.WAV" WAVE

TRACK 15 AUDIO

INDEX 01 00:00:00

FILE "nights16.WAV" WAVE

TRACK 16 AUDIO

INDEX 01 00:00:00

FILE "nights17.WAV" WAVE

TRACK 17 AUDIO

INDEX 01 00:00:00

FILE "nights18.WAV" WAVE

TRACK 18 AUDIO

INDEX 01 00:00:00

FILE "nights19.WAV" WAVE

TRACK 19 AUDIO

INDEX 01 00:00:00

FILE "nights20.WAV" WAVE

TRACK 20 AUDIO

INDEX 01 00:00:00

I don't know how to edit a cuesheet and don't use nero (if that helps). All i want to do is burn it but don't know where to begin.

If relevant: using Easy-CD Pro and CDRWIN.

<Exhale>

Wow. What a boring post. But appreciate any help in advance.
 

Gear

New Member
Edit the cuesheet you downloaded. It should look like this example:

FILE "GOLDPACK_2.BIN" BINARY

TRACK 01 MODE1/2352

INDEX 01 00:00:00

TRACK 02 MODE2/2352

INDEX 00 50:24:48

INDEX 01 50:26:48

TRACK 03 AUDIO

INDEX 00 52:11:64

INDEX 01 52:13:64

TRACK 04 AUDIO

INDEX 00 57:09:05

INDEX 01 57:11:05

So, make it look like this other example:

FILE "GOLDPACK_2.BIN" BINARY

TRACK 01 MODE1/2352

INDEX 01 00:00:00

TRACK 02 MODE1/2352

INDEX 00 50:24:48

INDEX 01 50:26:48

TRACK 03 AUDIO

INDEX 00 52:11:64

INDEX 01 52:13:64

TRACK 04 AUDIO

INDEX 00 57:09:05

INDEX 01 57:11:05

Check the threads of the forum. This thing was discussed before. I don't know how many tracks are supposed to be in nights.
 

Rorscach

New Member
Thanks Gear. I read that i can edit a cuesheet in notepad, but i'm still stumped on the double iso thing. Would using CDRWIN to burn the bin with the appropriate cuesheet work?
 
Top