problem with cdrwin

asshoe

New Member
ok when i try burning metal slug for the saturn on cdrwin it says "Error 'WRITE' command failed on device 2:0:0

Read\Write error or bad meduim detected (04h 00h 02h 0Ch 09h" but i don't get this error when i just try burning it with the iso only. my cue looks like this. thx

FILE "D:\metalslug_saturn\metalslug.ISO" BINARY

TRACK 01 MODE1/2048

INDEX 01 00:00:00

POSTGAP 00:02:00

FILE "D:\METALSLUG_SATURN\TRACK2.MP3" MP3

TRACK 02 AUDIO

PREGAP 00:02:00

INDEX 01 00:00:00

FILE "D:\METALSLUG_SATURN\TRACK3.MP3" MP3

TRACK 03 AUDIO

INDEX 01 00:00:00

FILE "D:D:\METALSLUG_SATURN\TRACK4.MP3" MP3

TRACK 04 AUDIO

INDEX 01 00:00:00

FILE "D:\METALSLUG_SATURN\TRACK5.MP3" MP3

TRACK 05 AUDIO

INDEX 01 00:00:00

FILE "D:\METALSLUG_SATURN\TRACK6.MP3" MP3

TRACK 06 AUDIO

INDEX 01 00:00:00

FILE "D:\METALSLUG_SATURN\TRACK7.MP3" MP3

TRACK 07 AUDIO

INDEX 01 00:00:00

FILE "D:\METALSLUG_SATURN\TRACK8.MP3" MP3

TRACK 08 AUDIO

INDEX 01 00:00:00

FILE "D:\METALSLUG_SATURN\TRACK9.MP3" MP3

TRACK 09 AUDIO

INDEX 01 00:00:00

FILE "D:\METALSLUG_SATURN\TRACK10.MP3" MP3

TRACK 10 AUDIO

INDEX 01 00:00:00

FILE "D:\METALSLUG_SATURN\TRACK11.MP3" MP3

TRACK 11 AUDIO

INDEX 01 00:00:00

FILE "D:\STUFF\METALSLUG_SATURN\TRACK12.MP3" MP3

TRACK 12 AUDIO

INDEX 01 00:00:00

FILE "D:\METALSLUG_SATURN\TRACK13.MP3" MP3

TRACK 13 AUDIO

INDEX 01 00:00:00

FILE "D:\METALSLUG_SATURN\TRACK14.MP3" MP3

TRACK 14 AUDIO

INDEX 01 00:00:00

FILE "D:\METALSLUG_SATURN\TRACK15.MP3" MP3

TRACK 15 AUDIO

INDEX 01 00:00:00

FILE "D:\METALSLUG_SATURN\TRACK16.MP3" MP3

TRACK 16 AUDIO

INDEX 01 00:00:00

FILE "D:\METALSLUG_SATURN\TRACK17.MP3" MP3

TRACK 17 AUDIO

INDEX 01 00:00:00

FILE "D:\METALSLUG_SATURN\TRACK18.MP3" MP3

TRACK 18 AUDIO

INDEX 01 00:00:00

FILE "D:\METALSLUG_SATURN\TRACK19.MP3" MP3

TRACK 19 AUDIO

INDEX 01 00:00:00

FILE "D:\METALSLUG_SATURN\TRACK20.MP3" MP3

TRACK 20 AUDIO

INDEX 01 00:00:00
 

rcefiro

New Member
I've gotten that problem before. I don't know how to solve it in CDRWin, but when I burnt the game with Nero it worked fine. I would suggest to load the Cue sheet in Nero then burn. But if there's a way to fix it in CDRWin, I too would like to know because I hate burning ISO+MP3 in Nero, takes too long.
 

asshoe

New Member
oh ok i usalluay use nero just to back up my folders and roms and all but ok thx for the fast reply. oh man nero is being a lil piss ant and whenever i try loading a cue sheet it doesn't respond and freezes
man.
 

rcefiro

New Member
You can try to use Fireburner. That burns ISO+MP3 with a cue sheet. I've never personally used Fireburner, but a lot of people seem to like that program a lot.
 

Taelon

Member
To asshoe:

look *CLOSELY* at your cuesheet.

The filenames for audio tracks 04 and 12 are both wrong. One includes a double "D:", the other a path different from all the rest. So it must not be finding everything the cuesheet refers to.

I suggest just deleting it and remaking a cuesheet with Sega Cue Maker, to cover any additional errors in it.

Also, some burners don't like RAW mode. Make sure that's turned off in CDRWin.
 

asshoe

New Member
whoot whoot fixed it. the same thing happened too when i use the sega cue sheet maker and than i put my caching thing down to 2mb and now it works
 
Top