Strange cue sheet

tupou

New Member
Hey, I'm having some trouble burning a saturn game. Here's what the cue sheet:
FILE SOLDIVIDE.BIN BINARY

TRACK 01 MODE1/2352

INDEX 01 00:00:00

TRACK 02 MODE2/2352

PREGAP 00:03:00

INDEX 01 00:05:16

TRACK 03 AUDIO

PREGAP 00:02:00

INDEX 01 58:01:41

I've had cuesheets for bins that made the burning program think the cd was like 200+ minutes, but I'd just use binchunker and the saturn cuesheet maker to get those to work. I don't think I can do that for this though because then I'd end up with 2 iso files and one wav... 2 different burning programs haven't recognized the above as a valid cuesheet...

Anybody know what I can do to get this game burnt? Any help is appreciated.
 

soul

New Member
i had a game with 2 iso's but never burned it saccessfuly the game was playeble but it had sound problems
 
Top