Total Beginner

Hi! I have no idea how to burn saturn games.I am going to buy a modchip soon so I wanted to burn few games.First I decided to check burned cds by Giri Giri emulator.

I downloaded iso and I've changed mp3 to wav files then I maked a cue file with Sega Cue Maker.After that I mounted a cue file in demon tools and opened Giri Giri,game worked perfectly.So I decieded to burn a cue file with Nero.I opened emulator to check my burned cd but it threw me away to bios menu.I've tried Alcohol but that didn't work and I have no idea what have I done wrong?

My cue file:

FILE "GUARDIAN_HEROES.iso" BINARY

TRACK 01 MODE1/2048

INDEX 01 00:00:00

POSTGAP 00:02:00

FILE "Track No02.wav" WAVE

TRACK 02 AUDIO

PREGAP 00:02:00

INDEX 01 00:00:00

FILE "Track No03.wav" WAVE

TRACK 03 AUDIO

INDEX 01 00:00:00

FILE "Track No04.wav" WAVE

TRACK 04 AUDIO

INDEX 01 00:00:00

FILE "Track No05.wav" WAVE

TRACK 05 AUDIO

INDEX 01 00:00:00

FILE "Track No06.wav" WAVE

TRACK 06 AUDIO

INDEX 01 00:00:00

FILE "Track No07.wav" WAVE

TRACK 07 AUDIO

INDEX 01 00:00:00

FILE "Track No08.wav" WAVE

TRACK 08 AUDIO

INDEX 01 00:00:00

FILE "Track No09.wav" WAVE

TRACK 09 AUDIO

INDEX 01 00:00:00

FILE "Track No10.wav" WAVE

TRACK 10 AUDIO

INDEX 01 00:00:00

FILE "Track No11.wav" WAVE

TRACK 11 AUDIO

INDEX 01 00:00:00

FILE "Track No12.wav" WAVE

TRACK 12 AUDIO

INDEX 01 00:00:00

FILE "Track No13.wav" WAVE

TRACK 13 AUDIO

INDEX 01 00:00:00

FILE "Track No14.wav" WAVE

TRACK 14 AUDIO

INDEX 01 00:00:00

FILE "Track No15.wav" WAVE

TRACK 15 AUDIO

INDEX 01 00:00:00

FILE "Track No16.wav" WAVE

TRACK 16 AUDIO

INDEX 01 00:00:00

FILE "Track No17.wav" WAVE

TRACK 17 AUDIO

INDEX 01 00:00:00

FILE "Track No18.wav" WAVE

TRACK 18 AUDIO

INDEX 01 00:00:00

FILE "Track No19.wav" WAVE

TRACK 19 AUDIO

INDEX 01 00:00:00

FILE "Track No20.wav" WAVE

TRACK 20 AUDIO

INDEX 01 00:00:00

FILE "Track No21.wav" WAVE

TRACK 21 AUDIO

INDEX 01 00:00:00

FILE "Track No22.wav" WAVE

TRACK 22 AUDIO

INDEX 01 00:00:00

FILE "Track No23.wav" WAVE

TRACK 23 AUDIO

INDEX 01 00:00:00

FILE "Track No24.wav" WAVE

TRACK 24 AUDIO

INDEX 01 00:00:00

Everything works when I mount a cue file but when I burn it I can't run it.I tried DAO,TAO with no result.Please for your help
 

racketboy

Established Member
this may sound a little weird, but try re-ripping the CD using Nero and then mount the re-ripped image in Daemon Tools and see if it works again.

Maybe its a problem with your drive.

BTW, its not necessary to convert the MP3s when using Nero.

It will do it itself.
 
Top