• Rise from your gwave!

Whats wrong with my cuesheet?

Discussion in 'General Tech Help & CD Burning Help' started by Dyne, Mar 23, 2002.

  1. Dyne

    Dyne New Member

    heres the error i get.

    invalid CUE SHEET command at line 1. illegal cue sheet comand syntax. okay im not dumb so i assume i either have something not supposed to be there or something not there. heres my cuesheet for VF Remix.

    FILE "vfremix T01 Mode1 2048.iso" BINARY

    TRACK 01 MODE1/2048

    INDEX 01 00:00:00

    POSTGAP 00:02:00

    FILE TRACK02.WAV WAVE

    TRACK 02 AUDIO

    PREGAP 00:02:00

    INDEX 01 00:00:00

    FILE TRACK03.WAV WAVE

    TRACK 03 AUDIO

    INDEX 01 00:00:00

    FILE TRACK04.WAV WAVE

    TRACK 04 AUDIO

    INDEX 01 00:00:00

    FILE TRACK05.WAV WAVE

    TRACK 05 AUDIO

    INDEX 01 00:00:00

    FILE TRACK06.WAV WAVE

    TRACK 06 AUDIO

    INDEX 01 00:00:00

    FILE TRACK07.WAV WAVE

    TRACK 07 AUDIO

    INDEX 01 00:00:00

    FILE TRACK08.WAV WAVE

    TRACK 08 AUDIO

    INDEX 01 00:00:00

    FILE TRACK09.WAV WAVE

    TRACK 09 AUDIO

    INDEX 01 00:00:00

    FILE TRACK10.WAV WAVE

    TRACK 10 AUDIO

    INDEX 01 00:00:00

    FILE TRACK11.WAV WAVE

    TRACK 11 AUDIO

    INDEX 01 00:00:00

    FILE TRACK12.WAV WAVE

    TRACK 12 AUDIO

    INDEX 01 00:00:00

    FILE TRACK13.WAV WAVE

    TRACK 13 AUDIO

    INDEX 01 00:00:00

    FILE TRACK14.WAV WAVE

    TRACK 14 AUDIO

    INDEX 01 00:00:00

    FILE TRACK15.WAV WAVE

    TRACK 15 AUDIO

    INDEX 01 00:00:00

    FILE TRACK16.WAV WAVE

    TRACK 16 AUDIO

    INDEX 01 00:00:00

    FILE TRACK17.WAV WAVE

    TRACK 17 AUDIO

    INDEX 01 00:00:00

    FILE TRACK18.WAV WAVE

    TRACK 18 AUDIO

    INDEX 01 00:00:00

    FILE TRACK19.WAV WAVE

    TRACK 19 AUDIO

    INDEX 01 00:00:00

    note: i tried it with and without the cuts at the beginning and end (in CDRWin). this IS my first time writing one obviously and i followed the generic one in the other thread. i also tried Nero and didnt know how to get the values for the header and end thingies so had no luch with that program either :( any help would be great as im sure this is a REALLY dumb question.

    (Edited by Dyne at 2:45 pm on Mar. 23, 2002)
     
  2. ExCyber

    ExCyber Staff Member

    FILE vfremix T01 Mode1 2048.iso BINARY

    should be

    FILE "vfremix T01 Mode1 2048.iso" BINARY

    The spaces screw up the syntax unless the filename is quoted.
     
  3. Dyne

    Dyne New Member

    now it doesnt like line 5......
     
  4. ExCyber

    ExCyber Staff Member

    What does the error message say? Line 5 looks okay to me.
     
  5. Dyne

    Dyne New Member

    invalid CUE SHEET command at line 5. illegal cue sheet comand syntax.
     
  6. MasterAkumaMatata

    MasterAkumaMatata Staff Member

    I recommend you to rename all your files (*.ISO and *.WAV or *.MP3) so that there are no spaces in the file names, and also to make sure the spelling of the file names of your actual files and that on your cue sheet match.

    If you are still getting problems with your cue sheet, try using Lodger's Cue Maker to generate one for you and compare yours to that one.
     
  7. Dyne

    Dyne New Member

    ill try to rename them. i got lodgers program in the 3 parts (i tried to do as much looking around as i could before sounding like a total noob :)) since i had to get the full version and they refused to unrar into one file. when id try to open the .rar file it refused to find the rar1 and the other subsequent files even tho they were all in the same directory. is there any way i can dl that app without it being broken up? thanks again.
     
  8. Dyne

    Dyne New Member

    thanks for the link. the cuesheet was exactly the same as mine, yet CDRwin liked Lodgers and i burned the disc.....only prob is the game wont boot. i got a V-saturn with a mod and a 4-in-1 and ive played many a burned game so i know the burn was bad. i havent tinkered with it much more because lodgers writes the cuesheet with mp3's....so i edited it to say Wav's since thats what i have the audio as and now it wont accept the cuesheet. its very weird. i might just fresh install win98se in here just so i can use ezcd.
     

Share This Page