Burn Settings?

Hello everyone! Lots of good stuff to be had on the board here. Maybe I am not putting the right things into the search engine, but I have not found an answer to my question yet by browsing through past topics. So if I am repeating something I apologize, but still hope for some help. I actually have two questions:

1) How many mp3 tracks are there for the Shining Force CD?

2) What burn settings should I use to make a good working copy of a SegaCD (using Nero) Here is the cue file I used:

FILE "C:\Dark Wizard.ISO" BINARY

TRACK 01 MODE1/2048

INDEX 01 00:00:00

POSTGAP 00:02:00

FILE "C:\Dark Wizard 02.WAV" WAVE

TRACK 02 AUDIO

PREGAP 00:02:00

INDEX 01 00:00:00

FILE "C:\Dark Wizard 03.WAV" WAVE

TRACK 03 AUDIO

INDEX 01 00:00:00

FILE "C:\Dark Wizard 04.WAV" WAVE

TRACK 04 AUDIO

INDEX 01 00:00:00

FILE "C:\Dark Wizard 05.WAV" WAVE

TRACK 05 AUDIO

INDEX 01 00:00:00

FILE "C:\Dark Wizard 06.WAV" WAVE

TRACK 06 AUDIO

INDEX 01 00:00:00

FILE "C:\Dark Wizard 07.WAV" WAVE

TRACK 07 AUDIO

INDEX 01 00:00:00

FILE "C:\Dark Wizard 08.WAV" WAVE

TRACK 08 AUDIO

INDEX 01 00:00:00

FILE "C:\Dark Wizard 09.WAV" WAVE

TRACK 09 AUDIO

INDEX 01 00:00:00

FILE "C:\Dark Wizard 10.WAV" WAVE

TRACK 10 AUDIO

INDEX 01 00:00:00

FILE "C:\Dark Wizard 11.WAV" WAVE

TRACK 11 AUDIO

INDEX 01 00:00:00

FILE "C:\Dark Wizard 12.WAV" WAVE

TRACK 12 AUDIO

INDEX 01 00:00:00

The music seems to be delayed a little. Have I done something wrong? Thanks for all your help.

jason
 
1. There are 34 audio tracks for Shining Force CD.

2. The music is probably off, because it was probably ripped from the Bin/Cue using BinChunker. I have found that BinChunker generally links the 2 second gap between tracks onto the beginning of the tracks. That's why I get the ISO out using BinChunker then rip the audio tracks with Audiocatalyst or Music Match Jukebox. Hope that helps.
 
Top