Burning Trouble

BoBo

New Member
Well, I snagged xmen vx. streetfighter the other day and I got a nero image file and some mp3 files, and here is what the cue says......

FILE "xm_vs_sf_01.nrg" BINARY

TRACK 01 MODE1/2048

INDEX 01 00:00:00

FILE "xm_vs_sf_02.mp3" MP3

TRACK 02 AUDIO

INDEX 01 00:00:00

TITLE xm_vs_sf_02

FILE "xm_vs_sf_03.mp3" MP3

TRACK 03 AUDIO

INDEX 01 00:00:00

TITLE xm_vs_sf_03

FILE "xm_vs_sf_04.mp3" MP3

TRACK 04 AUDIO

INDEX 01 00:00:00

TITLE xm_vs_sf_04

FILE "xm_vs_sf_05.mp3" MP3

TRACK 05 AUDIO

INDEX 01 00:00:00

TITLE xm_vs_sf_05

FILE "xm_vs_sf_06.mp3" MP3

TRACK 06 AUDIO

INDEX 01 00:00:00

TITLE xm_vs_sf_06

FILE "xm_vs_sf_07.mp3" MP3

TRACK 07 AUDIO

INDEX 01 00:00:00

TITLE xm_vs_sf_07

FILE "xm_vs_sf_08.mp3" MP3

TRACK 08 AUDIO

INDEX 01 00:00:00

TITLE xm_vs_sf_08

FILE "xm_vs_sf_09.mp3" MP3

TRACK 09 AUDIO

INDEX 01 00:00:00

TITLE xm_vs_sf_09

FILE "xm_vs_sf_10.mp3" MP3

TRACK 10 AUDIO

INDEX 01 00:00:00

TITLE xm_vs_sf_10

FILE "xm_vs_sf_11.mp3" MP3

TRACK 11 AUDIO

INDEX 01 00:00:00

TITLE xm_vs_sf_11

FILE "xm_vs_sf_12.mp3" MP3

TRACK 12 AUDIO

INDEX 01 00:00:00

TITLE xm_vs_sf_12

FILE "xm_vs_sf_13.mp3" MP3

TRACK 13 AUDIO

INDEX 01 00:00:00

TITLE xm_vs_sf_13

FILE "xm_vs_sf_14.mp3" MP3

TRACK 14 AUDIO

INDEX 01 00:00:00

TITLE xm_vs_sf_14

FILE "xm_vs_sf_15.mp3" MP3

TRACK 15 AUDIO

INDEX 01 00:00:00

TITLE xm_vs_sf_15

FILE "xm_vs_sf_16.mp3" MP3

TRACK 16 AUDIO

INDEX 01 00:00:00

TITLE xm_vs_sf_16

FILE "xm_vs_sf_17.mp3" MP3

TRACK 17 AUDIO

INDEX 01 00:00:00

TITLE xm_vs_sf_17

FILE "xm_vs_sf_18.mp3" MP3

TRACK 18 AUDIO

INDEX 01 00:00:00

TITLE xm_vs_sf_18

FILE "xm_vs_sf_19.mp3" MP3

TRACK 19 AUDIO

INDEX 01 00:00:00

TITLE xm_vs_sf_19

FILE "xm_vs_sf_20.mp3" MP3

TRACK 20 AUDIO

INDEX 01 00:00:00

TITLE xm_vs_sf_20

FILE "xm_vs_sf_21.mp3" MP3

TRACK 21 AUDIO

INDEX 01 00:00:00

TITLE xm_vs_sf_21

FILE "xm_vs_sf_22.mp3" MP3

TRACK 22 AUDIO

INDEX 01 00:00:00

TITLE xm_vs_sf_22

FILE "xm_vs_sf_23.mp3" MP3

TRACK 23 AUDIO

INDEX 01 00:00:00

TITLE xm_vs_sf_23

FILE "xm_vs_sf_24.mp3" MP3

TRACK 24 AUDIO

INDEX 01 00:00:00

TITLE xm_vs_sf_24

FILE "xm_vs_sf_25.mp3" MP3

TRACK 25 AUDIO

INDEX 01 00:00:00

TITLE xm_vs_sf_25

FILE "xm_vs_sf_26.mp3" MP3

TRACK 26 AUDIO

INDEX 01 00:00:00

TITLE xm_vs_sf_26

FILE "xm_vs_sf_27.mp3" MP3

TRACK 27 AUDIO

INDEX 01 00:00:00

TITLE xm_vs_sf_27

FILE "xm_vs_sf_28.mp3" MP3

TRACK 28 AUDIO

INDEX 01 00:00:00

TITLE xm_vs_sf_28

FILE "xm_vs_sf_29.mp3" MP3

TRACK 29 AUDIO

INDEX 01 00:00:00

TITLE xm_vs_sf_29

FILE "xm_vs_sf_30.mp3" MP3

TRACK 30 AUDIO

INDEX 01 00:00:00

TITLE xm_vs_sf_30

FILE "xm_vs_sf_31.mp3" MP3

TRACK 31 AUDIO

INDEX 01 00:00:00

TITLE xm_vs_sf_31

FILE "xm_vs_sf_32.mp3" MP3

TRACK 32 AUDIO

INDEX 01 00:00:00

TITLE xm_vs_sf_32

FILE "xm_vs_sf_33.mp3" MP3

TRACK 33 AUDIO

INDEX 01 00:00:00

TITLE xm_vs_sf_33

FILE "xm_vs_sf_34.mp3" MP3

TRACK 34 AUDIO

INDEX 01 00:00:00

TITLE xm_vs_sf_34

FILE "xm_vs_sf_35.mp3" MP3

TRACK 35 AUDIO

INDEX 01 00:00:00

TITLE xm_vs_sf_35

FILE "xm_vs_sf_36.mp3" MP3

TRACK 36 AUDIO

INDEX 01 00:00:00

TITLE xm_vs_sf_36

FILE "xm_vs_sf_37.mp3" MP3

TRACK 37 AUDIO

INDEX 01 00:00:00

TITLE xm_vs_sf_37

FILE "xm_vs_sf_38.mp3" MP3

TRACK 38 AUDIO

INDEX 01 00:00:00

TITLE xm_vs_sf_38

FILE "xm_vs_sf_39.mp3" MP3

TRACK 39 AUDIO

INDEX 01 00:00:00

TITLE xm_vs_sf_39

FILE "xm_vs_sf_40.mp3" MP3

TRACK 40 AUDIO

INDEX 01 00:00:00

TITLE xm_vs_sf_40

FILE "xm_vs_sf_41.mp3" MP3

TRACK 41 AUDIO

INDEX 01 00:00:00

TITLE xm_vs_sf_41

Now, I can't figure out how to use cue files with nero, and I don't think that it would work with fireburner/cdrwin because the binary image is a nero image, anybody know how to burn this?
 

Zero 9

New Member
To burn cues with Nero:

File | Burn Image...

Then in the dropdown box choose all files, go to your folder with the cue and select it and press ok.
 

MasterAkumaMatata

Staff member
First of all, you might want to check to see if xm_vs_sf_01.nrg is really a Nero image or just an ISO image named that way. Open it with CDmage and find out. If it's really a Nero image, you may need to convert it to a regular MODE1/2048 ISO image (Right click on the right pane on CDmage and Extract Tracks..., choose Mode1/2048... when done, rename to *.ISO).

Second, what's with all those useless titles for the audio tracks?
Screw that cue sheet (i.e., delete it). After you've converted the first track to *.ISO, get Lodger's Cue Maker to generate a new cue sheet for you. Then, follow Zero 9's instructions above to burn ISO+MP3+CUE with Nero.

BTW, this game requires a 4MB RAM cart to play. Also, don't forget to change the country code of the ISO before burning, if necessary.
 

BoBo

New Member
Well, Nero didn't like all those title things in the cue and gave me a million errors, I'll check it out in cdmage, and no worries about burning a normal iso+mp3+cue game, and of course I have a 4meg ram cart
 
Top