Game will not load after Title Screen

warbenekar1

New Member
Hi, I have a Sega CDX and I just burned a game about a week ago: Lunar The Silver Star. I put it into my Sega CDX and it doesn't load past the title screen. What can I do? I know the CD-R works though, because I played it on my computer using Gens and I know my CDX works because I have other games that work just fine. This was my first burn of a Sega CD game so maybe I did something wrong. Anyway, can someone please help me?????
 

SegaSaturnDDR

New Member
1) Did you play the burned CD through Gens, or the ISO?

2) What burning program did you use?

3) How was the iso packaged? (ISO/MP3 or BIN/CUE)
 

Link Hylia

New Member
Chances are he forgot the audio tracks. Burn the ISO disc image as track one, and tack on all the audio tracks as tracks 2-xx. Also, try some other Sega CD, as the CDX is missing a few things that break compatibility. Of course, I could be confusing it with the PBC.
 

warbenekar1

New Member
To Answer Your questions,

Originally posted by SegaSaturnDDR@Dec. 07 2002, 5:40 am

1) Did you play the burned CD through Gens, or the ISO?

2) What burning program did you use?

3) How was the iso packaged? (ISO/MP3 or BIN/CUE).

1. I am assuming you mean did I play the game in Gens through the CD or the ISO and the answer would be the CD.

2. I used CDRWIN.

3. It was packaged ISO/MP3, but i converted the MP3 files into WAV and made a cue sheet with which I don't think there are any problems.
 

Link Hylia

New Member
On the CDX, have you tried playing the audio tracks? or through Gens? Maybe they didn't burn right, or a 2 second gap is needed/not needed. Post the lengths of the CD audio tracks, and we probably will find all the errors in them.
 

warbenekar1

New Member
This is the whole Cue Sheet: If you can find something, by all means do.

FILE SegaLunar.iso BINARY

TRACK 01 MODE1/2048

INDEX 01 00:00:00

POSTGAP 00:02:00

FILE "001_Lunar 02.WAV" WAVE

TRACK 02 AUDIO

PREGAP 00:02:00

INDEX 01 00:00:00

FILE "002_Lunar 03.WAV" WAVE

TRACK 03 AUDIO

INDEX 01 00:00:00

FILE "003_Lunar 04.WAV" WAVE

TRACK 04 AUDIO

INDEX 01 00:00:00

FILE "004_Lunar 05.WAV" WAVE

TRACK 05 AUDIO

INDEX 01 00:00:00

FILE "005_Lunar 06.WAV" WAVE

TRACK 06 AUDIO

INDEX 01 00:00:00

FILE "006_Lunar 07.WAV" WAVE

TRACK 07 AUDIO

INDEX 01 00:00:00

FILE "007_Lunar 08.WAV" WAVE

TRACK 08 AUDIO

INDEX 01 00:00:00

FILE "008_Lunar 09.WAV" WAVE

TRACK 09 AUDIO

INDEX 01 00:00:00

FILE "009_Lunar 10.WAV" WAVE

TRACK 10 AUDIO

INDEX 01 00:00:00

FILE "010_Lunar 11.WAV" WAVE

TRACK 11 AUDIO

INDEX 01 00:00:00

FILE "011_Lunar 12.WAV" WAVE

TRACK 12 AUDIO

INDEX 01 00:00:00

FILE "012_Lunar 13.WAV" WAVE

TRACK 13 AUDIO

INDEX 01 00:00:00

FILE "013_Lunar 14.WAV" WAVE

TRACK 14 AUDIO

INDEX 01 00:00:00

FILE "014_Lunar 15.WAV" WAVE

TRACK 15 AUDIO

INDEX 01 00:00:00

FILE "015_Lunar 16.WAV" WAVE

TRACK 16 AUDIO

INDEX 01 00:00:00

FILE "016_Lunar 17.WAV" WAVE

TRACK 17 AUDIO

INDEX 01 00:00:00

FILE "017_Lunar 18.WAV" WAVE

TRACK 18 AUDIO

INDEX 01 00:00:00

FILE "018_Lunar 19.WAV" WAVE

TRACK 19 AUDIO

INDEX 01 00:00:00

FILE "019_Lunar 20.WAV" WAVE

TRACK 20 AUDIO

INDEX 01 00:00:00

FILE "020_Lunar 21.WAV" WAVE

TRACK 21 AUDIO

INDEX 01 00:00:00

FILE "021_Lunar 22.WAV" WAVE

TRACK 22 AUDIO

INDEX 01 00:00:00

FILE "022_Lunar 23.WAV" WAVE

TRACK 23 AUDIO

INDEX 01 00:00:00

FILE "023_Lunar 24.WAV" WAVE

TRACK 24 AUDIO

INDEX 01 00:00:00

FILE "024_Lunar 25.WAV" WAVE

TRACK 25 AUDIO

INDEX 01 00:00:00

FILE "025_Lunar 26.WAV" WAVE

TRACK 26 AUDIO

INDEX 01 00:00:00

FILE "026_Lunar 27.WAV" WAVE

TRACK 27 AUDIO

INDEX 01 00:00:00

FILE "027_Lunar 28.WAV" WAVE

TRACK 28 AUDIO

INDEX 01 00:00:00

FILE "028_Lunar 29.WAV" WAVE

TRACK 29 AUDIO

INDEX 01 00:00:00

FILE "029_Lunar 30.WAV" WAVE

TRACK 30 AUDIO

INDEX 01 00:00:00

FILE "030_Lunar 31.WAV" WAVE

TRACK 31 AUDIO

INDEX 01 00:00:00

FILE "031_Lunar 32.WAV" WAVE

TRACK 32 AUDIO

INDEX 01 00:00:00

FILE "032_Lunar 33.WAV" WAVE

TRACK 33 AUDIO

INDEX 01 00:00:00

FILE "033_Lunar 34.WAV" WAVE

TRACK 34 AUDIO

INDEX 01 00:00:00

FILE "034_Lunar 35.WAV" WAVE

TRACK 35 AUDIO

INDEX 01 00:00:00

FILE "035_Lunar 36.WAV" WAVE

TRACK 36 AUDIO

INDEX 01 00:00:00

FILE "036_Lunar 37.WAV" WAVE

TRACK 37 AUDIO

INDEX 01 00:00:00

FILE "037_Lunar 38.WAV" WAVE

TRACK 38 AUDIO

INDEX 01 00:00:00

FILE "038_Lunar 39.WAV" WAVE

TRACK 39 AUDIO

INDEX 01 00:00:00

FILE "039_Lunar 40.WAV" WAVE

TRACK 40 AUDIO

INDEX 01 00:00:00

FILE "040_Lunar 41.WAV" WAVE

TRACK 41 AUDIO

INDEX 01 00:00:00

FILE "041_Lunar 42.WAV" WAVE

TRACK 42 AUDIO

INDEX 01 00:00:00

FILE "042_Lunar 43.WAV" WAVE

TRACK 43 AUDIO

INDEX 01 00:00:00

FILE "043_Lunar 44.WAV" WAVE

TRACK 44 AUDIO

INDEX 01 00:00:00

FILE "044_Lunar 45.WAV" WAVE

TRACK 45 AUDIO

INDEX 01 00:00:00

FILE "045_Lunar 46.WAV" WAVE

TRACK 46 AUDIO

INDEX 01 00:00:00

FILE "046_Lunar 47.WAV" WAVE

TRACK 47 AUDIO

INDEX 01 00:00:00

FILE "047_Lunar 48.WAV" WAVE

TRACK 48 AUDIO

INDEX 01 00:00:00

FILE "048_Lunar 49.WAV" WAVE

TRACK 49 AUDIO

INDEX 01 00:00:00

FILE "049_Lunar 50.WAV" WAVE

TRACK 50 AUDIO

INDEX 01 00:00:00

FILE "050_Lunar 51.WAV" WAVE

TRACK 51 AUDIO

INDEX 01 00:00:00

FILE "051_Lunar 52.WAV" WAVE

TRACK 52 AUDIO

INDEX 01 00:00:00
 

warbenekar1

New Member
also, on the cdx things there is the small screen that shows a number it keeps going from 2 to 3 to 2 to 3 and so forth if this helps any, but remember other games work.
 

mal

Member
Which Lunar is it that needs to be burnt TAO? ???

I'm pretty sure they both need to be burnt Track-At-Once.

The worst that will happen is that you burn another coaster...
 

warbenekar1

New Member
I have downloaded the program and am going to try to burn the game again using track at once and will say if it does or doesn't work....thanks for helping either way...
 

warbenekar1

New Member
now i am both angry and give up....

I downloaded the ezcdpro and it got rid of my aspi driver so I had to download them again, after that I got the program working, I burned the cd, nothing, not even my computer recognizes the burned cd, then I decided, screw it I'm gonna try something. SO i got a hacked copy of Nero, loaded the cue sheet, burned that in track-at-once, didn't work, then disc-at-once, again nothing, so count it now 5 cds in total of which 1 does nothing and the other four can't be read on the cdx, so what I'm thinking is i should just see how deep my wallet really is and see if I can buy the game at an auction website, cause I GIVE UP unless someone can honest to god help me, maybe im using a bad brand of cdrs, or I don't know something else. ANYWAY, here is what I want, I would like to know what other people use to burn their games, from the burner program, the cdrw drive setting, the cdr brand, anything no matter how insignificant, just to see what I did wrong. I have burned so many psx games, I thought sega cd would be a breeze, but I didn't even have close to this many problems the first time I burned a psx game.
 

Jaded God

Member
Originally posted by warbenekar1@Dec. 08 2002, 2:45 pm

now i am both angry and give up....

I downloaded the ezcdpro and it got rid of my aspi driver so I had to download them again, after that I got the program working, I burned the cd, nothing, not even my computer recognizes the burned cd, then I decided, screw it I'm gonna try something. SO i got a hacked copy of Nero, loaded the cue sheet, burned that in track-at-once, didn't work, then disc-at-once, again nothing, so count it now 5 cds in total of which 1 does nothing and the other four can't be read on the cdx, so what I'm thinking is i should just see how deep my wallet really is and see if I can buy the game at an auction website, cause I GIVE UP unless someone can honest to god help me, maybe im using a bad brand of cdrs, or I don't know something else. ANYWAY, here is what I want, I would like to know what other people use to burn their games, from the burner program, the cdrw drive setting, the cdr brand, anything no matter how insignificant, just to see what I did wrong. I have burned so many psx games, I thought sega cd would be a breeze, but I didn't even have close to this many problems the first time I burned a psx game.

I highly agree, Sega CD is a piece of shit... Sorry but I have come to realize it is nothing. IT has wayy too many problems for burning things... Anyways I burn most Sega CD games just fine... and I can tell you use Winamp to convert the WAVs as do I... I have the same problem with Lunar: Silver Star Story... And I have had both bin and cue and iso/mp3 formats and they both just go black after the title screen and nothing loads...Other games burn fine... I would just buy that game and stay clear from the burns of it... Eternal Blue works just fine though.. thats what pisses me off, because we all know Silver Star Story is way better than Eternal Blue *Storyline CouGh CouGH:*..
 

antime

Extra Hard Mid Boss
Originally posted by Jaded God@Dec. 08 2002, 10:49 pm

I highly agree, Sega CD is a piece of shit... Sorry but I have come to realize it is nothing. IT has wayy too many problems for burning things...

Let me get this right. The SegaCD is shit because you can't get your warez to work? (More specifically, one particular game.) Aren't we lucky you got your modchip to work or we'd have to suffer the Saturn also being shit.
 

Jaded God

Member
man antime your a real fucking asshole... and no saturn wouldnt suck because of a modchip... Saturn is a great system.. I am not fond of Sega CD its IMO so why dont you go take your pompous ass somewhere else then just flamming all the time.
 

Taelon

Member
Could it be that the ISO track itself is corrupt/incomplete, and consequently, that files within the ISO9660 filesystem are missing???

But nobody thinks of that, do they? It would be so simple to let CDMage load the ISO track and check all the files within it...

Plus, I have to agree with antime on his post....
 

Taelon

Member
If I remember correctly, CDmage is available here, otherwise a Google search should get you there quickly.

It's a tool to examine, verify and extract CD image files of all kinds. CDmage supports bin, iso, trk, cue sheets, Nero and DJ (.cdi) files, and many others.

And OF COURSE it works
 

warbenekar1

New Member
I got CDmage, but it keeps giving me a damn error about the cue sheet, yet it works just fine in cdrwin and nero. I don't remember the exacat error and I can't look right now as I am currently in school and well probably shouldn't be posting, but maybe when I get home someone will have some answers or questions for me....
 
Top