Thunder force gold pack 2 cue sheet problempro

GO TO ADMIN PANEL > ADD-ONS AND INSTALL VERTIFORO SIDEBAR TO SEE FORUMS AND SIDEBAR

cherok

New Member
Joined
May 5, 2002
Messages
313
Points
16
Age
35
Website
www.buum.ro
should it look like this? because it isnt loading in cdrwin..

FILE "D:\WICKED2000FTP\SATURN ISOS\THUNDERFORCE GOLDPACK II\TFGP2.BIN" BINARY

TRACK 01 MODE1/2048

INDEX 01 00:00:00

TRACK 02 MODE2/2336

PREGAP 00:03:00

INDEX 01 50:24:48

TRACK 03 AUDIO

PREGAP 00:02:00

INDEX 01 52:08:64

TRACK 04 AUDIO

INDEX 00 57:04:08

INDEX 01 57:06:05

i tried deleting the top lines of code

( FILE "D:\WICKED2000FTP\SATURN ISOS\THUNDERFORCE GOLDPACK II\TFGP2.BIN" BINARY)

and still it did not load properly, it came with an automatic winAce extractor.. somenbody pleease help!
 

BrindA17

New Member
Joined
May 12, 2002
Messages
65
Points
6
Website
brinda17.topcities.com
Originally posted by cherok@May 16 2002,19:20

should it look like this? because it isnt loading in cdrwin..

FILE "D:\WICKED2000FTP\SATURN ISOS\THUNDERFORCE GOLDPACK II\TFGP2.BIN" BINARY

TRACK 01 MODE1/2048

INDEX 01 00:00:00

TRACK 02 MODE2/2336

PREGAP 00:03:00

INDEX 01 50:24:48

TRACK 03 AUDIO

PREGAP 00:02:00

INDEX 01 52:08:64

TRACK 04 AUDIO

INDEX 00 57:04:08

INDEX 01 57:06:05

i tried deleting the top lines of code

( FILE "D:\WICKED2000FTP\SATURN ISOS\THUNDERFORCE GOLDPACK II\TFGP2.BIN" BINARY)

and still it did not load properly, it came with an automatic winAce extractor.. somenbody pleease help!
remove this part from the File path : D:\WICKED2000FTP\SATURN ISOS\THUNDERFORCE GOLDPACK II\

Just have the file name, not it's location.
 

cherok

New Member
Joined
May 5, 2002
Messages
313
Points
16
Age
35
Website
www.buum.ro
cdrwin recognized it

FILE "TFGP2.BIN" BINARY

TRACK 01 MODE1/2048

INDEX 01 00:00:00

TRACK 02 MODE2/2336

PREGAP 00:03:00

INDEX 01 50:24:48

TRACK 03 AUDIO

PREGAP 00:02:00

INDEX 01 52:08:64

TRACK 04 AUDIO

INDEX 00 57:04:08

INDEX 01 57:06:05

although my recoder rejected it.. aaagh!
 

MasterAkumaMatata

Staff member
Joined
Apr 18, 2001
Messages
3,300
Points
36
Location
Akuma Island
Website
superakuma5k.homestead.com
My cue sheet looks like this

<table border="0" align="center" width="95%" cellpadding="3" cellspacing="1"><tr><td>Cue Sheet: </td></tr><tr><td id="CODE">

FILE "TFGP2.BIN" BINARY

TRACK 01 MODE1/<font color=yellow>2352</font>

INDEX 01 00:00:00

TRACK 02 MODE2/<font color=yellow>2352</font>

PREGAP 00:03:00

INDEX 01 50:2<font color=yellow>3</font>:48

TRACK 03 AUDIO

PREGAP 00:02:00

INDEX 01 52:08:64

TRACK 04 AUDIO

INDEX 00 57:04:0<font color=yellow>5</font>

INDEX 01 57:06:05

</td></tr></table>

It loaded fine and burned fine with CDRWin on my burner. Unlike your BIN+CUE rip, the BIN+CUE rip I have is completely raw (i.e., 2352 bytes/sector). Since this is another MODE1+MODE2 rip problem, I guess what burner you have plays a major impact on whether you can burn it or not, and/or perhaps due to different combinations of the sector sizes between the two data tracks.
 

cherok

New Member
Joined
May 5, 2002
Messages
313
Points
16
Age
35
Website
www.buum.ro
the guy on the other side of the transfer says his worked fine when you removed the file extesion in the first track.. any pointers? cdrwin is being a bitch, so should i use nero? how do i use nero with bin and cue files ? thx alot
 

ShadowStitch

New Member
Joined
Jan 21, 2002
Messages
11
Points
1
Website
www.shadowstitch.com
The Cue Sheet I got didn't work either, it looked like this:

Code:
FILE "GOLDPACK_2.BIN" BINARY

TRACK 01 MODE1/2352

 INDEX 01 00:00:00

TRACK 02 MODE2/2352

 INDEX 00 50:24:48

 INDEX 01 50:26:48

TRACK 03 AUDIO

 INDEX 00 52:11:64

 INDEX 01 52:13:64

TRACK 04 AUDIO

 INDEX 00 57:09:05

 INDEX 01 57:11:05
Kept saying "illegal two-part pregap length (too small)"

However, the one AkumaMatata posted worked fine for me.

:woah:
 

venom

New Member
Joined
Dec 12, 2001
Messages
96
Points
6
Website
Visit site
Check the topic "burning help needed" at the bottom of the board, I fixed my problem by replacing MODE2/2352 with MODE!/2352, and everything worked out. Hope that helps.
 

Taelon

Member
Joined
Jan 8, 2002
Messages
1,451
Points
36
Website
dcforums.net
Could somebody help me ease my confusion over TF Gold Pack 2...?

When I burned that game, there never was a Mode2/2336 track... I only had a Mode1/2048 and two audio tracks... Burned it and it all works great. What's going on here? Do I have an incomplete burn or something? Sure doesn't seem like it...
 

daffy duck

New Member
Joined
Jun 22, 2002
Messages
49
Points
6
if it is a bin/cue

then use diskjuggler

they all work for me

just click on the bin file

if its iso mp3 then use winoncd

track image

add iso first then the mp3`s itll ask u what u want to burn them as click audio

viola

no probs for me

on either
 
Top