Cue sheet question

Ok. I'm trying to write a cue sheet for SF3. I've used http://www.litespeedcomputers.com/sx/misc/howto10.txt as a guide through the process. I've done everything exactly how it's been printed (minus the ====CUT==== at the top and bottom). As soon as I tried to load the cue sheet it gave me an error on line 1. Another guide called for the whole line ("C:\file\game\game.iso") so I tried that. It worked for the first line, but then gave me an error for the second line. SO i treid the whole directory line for the wave files and it still says error on line 2. Here's the line EXACTLY how it appears please tell me if you see anything wrong:

FILE C:\Documents and Settings\Phill\Desktop\Saturn Stuff\Games\Shining Force\Shining Force 02.WAV WAVE

TRACK 02 AUDIO

PREGAP 00:02:00

INDEX 01 00:00:00

And with the exception of the long file name, this is EXACTLY how it appears in http://www.litespeedcomputers.com/sx/misc/howto10.txt . Will someone either point me to a perfect example of a cue sheet or at least tell me if there's anything wrong with that line.

Thank you!
 

mal

Established Member
What you have there is a cue just for an audio track. It also won't like the spaces in your file path. If you must use it, be sure to enclose the path in quotation marks.

I think this is what you want:

(fill in your file names)

FILE SF3.ISO BINARY

TRACK 01 MODE1/2048

INDEX 01 00:00:00

POSTGAP 00:02:00

FILE TRACK02.WAV WAVE

TRACK 02 AUDIO

PREGAP 00:02:00

INDEX 01 00:00:00

I find it best to have the cuesheet in the same folder as the iso and wavs and not worry at all about file paths. Keep it short and simple.
smile.gif
 
Top