• Rise from your gwave!

Chrismas Nights

Discussion in 'Saturn' started by Weezer, Dec 21, 2001.

  1. Weezer

    Weezer New Member

    Since CDRwin won't accept the .cue and .bin for whatever reason, I figure I gotta use binchunker. Only, this is what it says:

    Exception EFOpen Error in module BINCHUNKER.EXE at 00010872.

    Cannot open file C:Downloadsxmasxmas_nights.bin

    I was looking in the .cue, too, and I saw a bunch of .wav's with the .bin. Could this be the problem?
     
  2. Snyderman

    Snyderman New Member

    Delete the directory crap. Make sure its just "ChristmasNights.bin" or whatever its called instead of

    "C:l337

    omzhaXX0rChristmasnights.bin"

    I think thats the problem. Although I'm not sure.

    (Edited by Snyderman at 9:50 pm on Dec. 21, 2001)
     
  3. megametalgreymon

    megametalgreymon New Member

    xmas nights is double data track,so don't binchucker it

    post the cue though, as it may show the problem
     
  4. Weezer

    Weezer New Member

    The .cue file:

    FILE "XMAS_NIGHTS.BIN" BINARY

    TRACK 01 MODE1/2048

    INDEX 01 00:00:00

    TRACK 02 MODE2/2336

    PREGAP 00:03:00

    INDEX 01 02:57:24

    TRACK 03 AUDIO

    PREGAP 00:02:00

    INDEX 01 27:52:48

    TRACK 04 AUDIO

    INDEX 00 28:02:53

    INDEX 01 28:04:53

    TRACK 05 AUDIO

    INDEX 00 28:14:55

    INDEX 01 28:16:55

    TRACK 06 AUDIO

    INDEX 00 28:28:08

    INDEX 01 28:30:08

    TRACK 07 AUDIO

    INDEX 00 28:44:18

    INDEX 01 28:46:18

    TRACK 08 AUDIO

    INDEX 00 30:54:67

    INDEX 01 30:56:67

    TRACK 09 AUDIO

    INDEX 00 33:00:13

    INDEX 01 33:02:13

    TRACK 10 AUDIO

    INDEX 00 35:08:13

    INDEX 01 35:10:13

    TRACK 11 AUDIO

    INDEX 00 37:13:13

    INDEX 01 37:15:13

    TRACK 12 AUDIO

    INDEX 00 39:05:50

    INDEX 01 39:07:50

    TRACK 13 AUDIO

    INDEX 00 40:34:51

    INDEX 01 40:36:51

    TRACK 14 AUDIO

    INDEX 00 41:36:53

    INDEX 01 41:38:53

    TRACK 15 AUDIO

    INDEX 00 42:33:69

    INDEX 01 42:35:69

    TRACK 16 AUDIO

    INDEX 00 43:31:28

    INDEX 01 43:33:28

    TRACK 17 AUDIO

    INDEX 00 44:21:34

    INDEX 01 44:23:34

    TRACK 18 AUDIO

    INDEX 00 45:49:64

    INDEX 01 45:51:64

    TRACK 19 AUDIO

    INDEX 00 51:06:31

    INDEX 01 51:08:31

    TRACK 20 AUDIO

    INDEX 00 56:21:60

    INDEX 01 56:23:60

    Keep in mind this is a .bin and .cue release.
     
  5. Eleven of 9

    Eleven of 9 New Member

    You could try burning it with FireBurner. After I got my new CDRW drive, I couldn't burn any of the Saturn games I downloaded using CDRWin, but they all work with FireBurner.

    I hope this helps :)
     
  6. eatpenguin

    eatpenguin New Member

    would blindwrite help?

    i know blindread/blindwrite does the whole bin/cue deal

    and it rips protected psx games with ease, but i have no idea about saturn
     
  7. MasterAkumaMatata

    MasterAkumaMatata Staff Member

    That's funny. The BIN/CUE rip I have shows the cue sheet like this (both data tracks as RAW):

    FILE "XMAS_NIGHTS.BIN" BINARY

    TRACK 01 MODE1/2352


    INDEX 01 00:00:00

    TRACK 02 MODE2/2352

    PREGAP 00:03:00

    INDEX 01 02:57:24

    TRACK 03 AUDIO

    PREGAP 00:02:00

    INDEX 01 27:52:48

    .

    .

    .


    If your BIN file is the same size as mine: 643,645,968 bytes, try changing your cue sheet to look like mine.
     

Share This Page